北斋漫画 Edo.Porn.1981.JAPANESE.1080p.AMZN.WEBRip.DDP2.0.x264-NOGRP 8.94GB

版主小s 6月前 641

北斋漫画 Edo.Porn.1981.JAPANESE.1080p.AMZN.WEBRip.DDP2.0.x264-NOGRP 8.94GB

◎译  名 北斋漫画/Edo Porn
◎片  名 北斎漫画
◎年  代 1981
◎产  地 日本
◎类  别 剧情 / 传记 / 历史
◎语  言 日语
◎上映日期 1981-09-12
◎IMDb评分 6.5/10 from 307 users
◎IMDb链接 https://www.imdb.com/title/tt0202908/
◎豆瓣评分 7.0/10 from 1103 users
◎豆瓣链接 https://movie.douban.com/subject/1298357/
◎片  长 119 分钟
◎导  演 新藤兼人 Kaneto Shind?
◎编  剧 新藤兼人 Kaneto Shind?
◎主  演 绪形拳 Ken Ogata
      田中裕子 Y?ko Tanaka
      樋口可南子 Kanako Higuchi
      乙羽信子 Nobuko Otowa
      西田敏行 Toshiyuki Nishida
      弗兰克堺 Frankie Sakai
      初井言荣 Kotoe Hatsui
      朝霧友香 Yuka Asagiri
      户浦六宏 Rokko Toura
      森塚敏 Bin Moritsuka
      大村昆 Kon Omura
      爱川钦也 Kinya Aikawa
      观世荣夫 Hideo Kanze
      殿山泰司 Taiji Tonoyama
      今井和子 Kazuko Imai
      宍户锭 Jo Shishido

◎标  签 日本 | 新藤兼人 | 传记 | 日本电影 | 葛饰北斋 | 樋口可南子 | 田中裕子 | 情色

◎简  介 

  本片描述了日本浮世绘大师葛饰北斋多姿多彩的一生。
  
  贫民出身的铁藏(绪形拳 饰)少年时成为磨镜师中岛伊势(フランキー堺 饰)的继子,后因迷恋绘画而拜师学画,却被数个师傅驱逐。后与养父闹翻,和女儿阿荣(田中裕子 饰)寄居在武士出身却酷爱写作的好友佐七(西田敏行 饰)家里。
  
  铁藏雨中邂逅谜样美女阿直(樋口可南子 饰),与之堕入情网,从此迷上春宫画,竟大受欢迎。养父迷恋阿直不得,自杀。阿直亦不辞而别,铁藏人生跌入低谷。困顿之际阿荣和佐七(后来的文学巨匠 龙泽马琴)帮铁藏渡过难关。四海云游的铁藏绘出“富狱三十六景”等名作。女儿阿荣则在七十岁之际嫁给八十二岁的佐七。独自一人的铁藏在失明的情况下画出最后的名作——“喜能会之故真道”。

◎获奖情况

  第6届报知映画赏 ?(1981)
  最佳女配角 田中裕子

Video
ID : 1
Format : AVC
Format/Info : Advanced Video Codec
Format profile : High@L4
Format settings : CABAC / 4 Ref Frames
Format settings, CABAC : Yes
Format settings, Reference frames : 4 frames
Codec ID : V_MPEG4/ISO/AVC
Duration : 1 h 59 min
Bit rate mode : Variable
Bit rate : 10.5 Mb/s
Maximum bit rate : 15.0 Mb/s
Width : 1 920 pixels
Height : 1 080 pixels
Display aspect ratio : 16:9
Frame rate mode : Constant
Frame rate : 23.976 (24000/1001/189150) FPS
Color space : YUV
Chroma subsampling : 4:2:0
Bit depth : 8 bits
Scan type : Progressive
Bits/(Pixel*Frame) : 0.212
Stream size : 8.75 GiB (98%)
Writing library : x264 core 148 r2623 d5b2374
Encoding settings : cabac=1 / ref=4 / deblock=1:-1:-1 / analyse=0x3:0x133 / me=umh / subme=9 / psy=1 / psy_rd=1.00:0.15 / mixed_ref=1 / me_range=24 / chroma_me=1 / trellis=2 / 8x8dct=1 / cqm=0 / deadzone=21,11 / fast_pskip=1 / chroma_qp_offset=-3 / threads=34 / lookahead_threads=5 / sliced_threads=0 / nr=150 / decimate=1 / interlaced=0 / bluray_compat=0 / constrained_intra=0 / bframes=8 / b_pyramid=2 / b_adapt=2 / b_bias=0 / direct=3 / weightb=1 / open_gop=0 / weightp=2 / keyint=120 / keyint_min=61 / scenecut=0 / intra_refresh=0 / rc_lookahead=120 / rc=crf / mbtree=1 / crf=18.0 / qcomp=0.60 / qpmin=0 / qpmax=69 / qpstep=4 / vbv_maxrate=15000 / vbv_bufsize=31250 / crf_max=0.0 / nal_hrd=vbr / filler=0 / ip_ratio=1.40 / aq=3:1.00
Default : Yes
Forced : No
Color range : Limited
Color primaries : BT.709
Transfer characteristics : BT.709
Matrix coefficients : BT.709

Audio
ID : 2
Format : E-AC-3
Format/Info : Enhanced AC-3
Commercial name : Dolby Digital Plus
Codec ID : A_EAC3
Duration : 1 h 59 min
Bit rate mode : Constant
Bit rate : 224 kb/s
Channel(s) : 2 channels
Channel layout : L R
Sampling rate : 48.0 kHz
Frame rate : 31.250 FPS (1536 SPF)
Compression mode : Lossy
Stream size : 191 MiB (2%)
Language : Japanese
Service kind : Complete Main
Default : Yes
Forced : No

Text
ID : 3
Format : UTF-8
Codec ID : S_TEXT/UTF8
Codec ID/Info : UTF-8 Plain Text
Duration : 1 h 55 min
Bit rate : 33 b/s
Count of elements : 1028
Stream size : 28.2 KiB (0%)
Language : English
Default : Yes
Forced : No


TAGS 剧情 历史 传记 /

上传的附件:
BT9527电影天堂 1、BT9527电影天堂提供的BT文件均来源于互联网抓取,只供网友学习交流、技术提升使用。
2、我们遵守BitTorrent点对点协议原则,任何版权问题请联系原资源发布商,我们不处理任何版权纠纷,谢谢!如有争议请联系邮箱:BT9527#hotmail.com(#换成@)
3、如果您发现某页面或地址有错误,请联系站长邮箱BT9527#hotmail.com(#换成@),我们会尽快处理。您的热心是对BT9527电影天堂最大的支持。
4、本站建议去正规影院观看电影以支持电影行业发展。
最新回复 (0)

你可以在 登录 or 注册 后,对此帖发表评论!

返回
发新帖