神偷次世代[国语配音/中文字幕].Skyline.Cruisers.2000.Bluray.1080p.LPCM2.0.x265.10bit-CTRLHD 5.92GB

版主小s 6月前 370

◎译 名 神偷次世代 / Skyline Cruisers

◎年 代 2000

◎产 地 中国香港

◎类 别 动作

◎语 言 粤语

◎上映日期 2000-11-24

◎IMDb链接 https://www.imdb.com/title/tt0272822/

◎豆瓣评分 5.8/10 (7870人评价)

◎豆瓣链接 https://movie.douban.com/subject/1298869/

◎片 长 89 分钟

◎导 演 叶伟信 Wilson Yip (id:1274472)

◎编 剧 郭子健 Derek Kwok Chi-kin (id:1274244)

郑思杰 Clement Sze-Kit Cheng (id:1069257)

司徒锦源 Kam-Yuen Szeto (id:1298766)

◎演 员 黎明 Leon Lai (id:1036978)

舒淇 Qi Shu (id:1138320)

陈小春 Jordan Chan (id:1075760)

李灿森 Sam Lee (id:1028522)

郑雪儿 Michelle Saram (id:1037606)

尹子维 Terence Yin (id:1045571)

杜德伟 Alex To (id:1006852)

王合喜 Ken Wong (id:1008281)

姚文基 Man-kei Yiu (id:1435360)

吴天瑜 Debbie Goh (id:1042120)

龙刚 Kong Lung (id:1324063)

谢家慧 Doris Tse (id:1388882)

邹文怀 Raymond Chow (id:1016883)

韦启良 Yee-Leung Wai (id:1300261)

张嘉辉 Ka-fai Cheung (id:1280620)

文念中 Lim Chung Man (id:1275158)

吴里璐 Dora Ng (id:1289270)

郑思杰 Clement Sze-Kit Cheng (id:1069257)

郑保瑞 Pou-Soi Cheang (id:1274240)

黄庆勋 Danny Wong (id:1400030)

霍永富 Marcus Fox (id:1445546)

郭子健 Derek Kwok Chi-kin (id:1274244)

◎简 介

Mac(黎明)、Bird(陈小春)、Sam(李灿森)和Michelle(雪儿)是国际神偷组织界的精英,四人一向合作无间配合默契,完成过许多艰巨任务。

此次四人要到马来西亚侦察一名科学家,希望偷取其刚研制成功的治癌药。可是在悄悄潜入药厂行动的过程中四人却遭遇埋伏,方知此次任务是骗局一场。在四人试图逃脱的过程中,Mac失手,但因神秘性感的女子June(舒淇)得以解困。从June身上,Mac忆起前女友被旧拍档出卖而死去的往事,并拥有了一个破解迷局的重要线索。

  1. ##### MediaInfo ######

  2. General

  3. Unique ID : 221132113255715585586790087445695145717 (0xA65C7EF094D84F1BBA15A3796FAFA6F5)

  4. Complete name : Skyline.Cruisers.2000.Bluray.1080p.LPCM2.0.x265.10bit-CTRLHD.mkv

  5. Format : Matroska

  6. Format version : Version 4

  7. File size : 5.92 GiB

  8. Duration : 1 h 28 min

  9. Overall bit rate : 9 544 kb/s

  10. Encoded date : UTC 2022-05-27 12:54:31

  11. Writing application : mkvmerge v62.0.0 ('Apollo') 64-bit

  12. Writing library : libebml v1.4.2 + libmatroska v1.6.4

  13. Video

  14. ID : 1

  15. Format : HEVC

  16. Format/Info : High Efficiency Video Coding

  17. Format profile : Main 10@L5@Main

  18. Codec ID : V_MPEGH/ISO/HEVC

  19. Duration : 1 h 28 min

  20. Bit rate : 4 917 kb/s

  21. Width : 1 920 pixels

  22. Height : 1 080 pixels

  23. Display aspect ratio : 16:9

  24. Frame rate mode : Constant

  25. Frame rate : 24.000 FPS

  26. Color space : YUV

  27. Chroma subsampling : 4:2:0

  28. Bit depth : 10 bits

  29. Bits/(Pixel*Frame) : 0.099

  30. Stream size : 3.05 GiB (52%)

  31. Writing library : x265 3.5+10-82786fccc:[Windows][MSVC 1929][64 bit] 10bit

  32. Encoding settings : cpuid=533541111039 / frame-threads=5 / numa-pools=36,36 / wpp / no-pmode / no-pme / no-psnr / no-ssim / log-level=2 / input-csp=1 / input-res=1920x1080 / interlace=0 / total-frames=0 / level-idc=0 / high-tier=1 / uhd-bd=0 / ref=6 / no-allow-non-conformance / repeat-headers / annexb / no-aud / no-eob / no-eos / no-hrd / info / hash=0 / no-temporal-layers / no-open-gop / min-keyint=24 / keyint=250 / gop-lookahead=0 / bframes=8 / b-adapt=2 / b-pyramid / bframe-bias=0 / rc-lookahead=24 / lookahead-slices=6 / NTMzNTQ=uuDQuD2mJt9fsCf / scenecut=40 / hist-scenecut=0 / radl=0 / no-splice / no-intra-refresh / ctu=64 / min-cu-size=8 / no-rect / no-amp / max-tu-size=32 / tu-inter-depth=1 / tu-intra-depth=1 / limit-tu=0 / rdoq-level=0 / dynamic-rd=0.00 / no-ssim-rd / signhide / no-tskip / nr-intra=0 / nr-inter=0 / no-constrained-intra / no-strong-intra-smoothing / max-merge=3 / limit-refs=1 / no-limit-modes / me=2 / subme=7 / merange=48 / temporal-mvp / no-frame-dup / no-hme / weightp / weightb / no-analyze-src-pics / deblock=0:0 / sao / no-sao-non-deblock / rd=4 / selective-sao=4 / early-skip / rskip / no-fast-intra / no-tskip-fast / no-cu-lossless / b-intra / no-splitrd-skip / rdpenalty=0 / psy-rd=2.00 / psy-rdoq=0.00 / no-rd-refine / no-lossless / cbqpoffs=0 / crqpoffs=0 / rc=crf / crf=16.0 / qcomp=0.60 / qpstep=4 / stats-write=0 / stats-read=0 / ipratio=1.40 / pbratio=1.30 / aq-mode=3 / aq-strength=1.00 / cutree / zone-count=0 / no-strict-cbr / qg-size=32 / no-rc-grain / qpmax=69 / qpmin=0 / no-const-vbv / sar=0 / overscan=0 / videoformat=5 / range=0 / colorprim=2 / transfer=2 / colormatrix=2 / chromaloc=0 / display-window=0 / cll=0,0 / min-luma=0 / max-luma=1023 / log2-max-poc-lsb=8 / vui-timing-info / vui-hrd-info / slices=1 / no-opt-qp-pps / no-opt-ref-list-length-pps / no-multi-pass-opt-rps / scenecut-bias=0.05 / hist-threshold=0.03 / no-opt-cu-delta-qp / aq-motion / no-hdr10 / no-hdr10-opt / no-dhdr10-opt / no-idr-recovery-sei / analysis-reuse-level=0 / analysis-save-reuse-level=0 / analysis-load-reuse-level=0 / scale-factor=0 / refine-intra=0 / refine-inter=0 / refine-mv=1 / refine-ctu-distortion=0 / no-limit-sao / ctu-info=0 / no-lowpass-dct / refine-analysis-type=0 / copy-pic=1 / max-ausize-factor=1.0 / no-dynamic-refine / no-single-sei / hevc-aq / no-svt / no-field / qp-adaptation-range=1.00 / scenecut-aware-qp=0conformance-window-offsets / right=0 / bottom=0 / NTMzNTQ= / decoder-max-rate=0 / no-vbv-live-multi-pass

  33. Default : Yes

  34. Forced : No

  35. Audio #1

  36. ID : 2

  37. Format : PCM

  38. Format settings : Little / Signed

  39. Codec ID : A_PCM/INT/LIT

  40. Duration : 1 h 28 min

  41. Bit rate mode : Constant

  42. Bit rate : 2 304 kb/s

  43. Channel(s) : 2 channels

  44. Sampling rate : 48.0 kHz

  45. Frame rate : 25.000 FPS (1920 SPF)

  46. Bit depth : 24 bits

  47. Stream size : 1.43 GiB (24%)

  48. Language : Chinese

  49. Default : Yes

  50. Forced : No

  51. Audio #2

  52. ID : 3

  53. Format : PCM

  54. Format settings : Little / Signed

  55. Codec ID : A_PCM/INT/LIT

  56. Duration : 1 h 28 min

  57. Bit rate mode : Constant

  58. Bit rate : 2 304 kb/s

  59. Channel(s) : 2 channels

  60. Sampling rate : 48.0 kHz

  61. Frame rate : 25.000 FPS (1920 SPF)

  62. Bit depth : 24 bits

  63. Stream size : 1.43 GiB (24%)

  64. Language : Chinese

  65. Default : Yes

  66. Forced : No

  67. Text #1

  68. ID : 4

  69. Format : PGS

  70. Muxing mode : zlib

  71. Codec ID : S_HDMV/PGS

  72. Codec ID/Info : Picture based subtitle format used on BDs/HD-DVDs

  73. Duration : 1 h 23 min

  74. Bit rate : 17.0 kb/s

  75. Count of elements : 983

  76. Stream size : 10.2 MiB (0%)

  77. Language : Chinese

  78. Default : Yes

  79. Forced : No

  80. Text #2

  81. ID : 5

  82. Format : PGS

  83. Muxing mode : zlib

  84. Codec ID : S_HDMV/PGS

  85. Codec ID/Info : Picture based subtitle format used on BDs/HD-DVDs

  86. Duration : 1 h 23 min

  87. Bit rate : 17.4 kb/s

  88. Count of elements : 981

  89. Stream size : 10.4 MiB (0%)

  90. Language : Chinese

  91. Default : Yes

  92. Forced : No

  93. Text #3

  94. ID : 6

  95. Format : PGS

  96. Muxing mode : zlib

  97. Codec ID : S_HDMV/PGS

  98. Codec ID/Info : Picture based subtitle format used on BDs/HD-DVDs

  99. Duration : 1 h 23 min

  100. Bit rate : 14.5 kb/s

  101. Count of elements : 939

  102. Stream size : 8.68 MiB (0%)

  103. Language : English

  104. Default : Yes

  105. Forced : No

  106. Menu

  107. 00:00:00.000 : en:第 01 章

  108. 00:07:42.583 : en:第 02 章

  109. 00:16:38.458 : en:第 03 章

  110. 00:22:40.917 : en:第 04 章

  111. 00:32:14.500 : en:第 05 章

  112. 00:37:09.625 : en:第 06 章

  113. 00:46:33.917 : en:第 07 章

  114. 00:52:47.625 : en:第 08 章

  115. 01:03:07.083 : en:第 09 章

  116. 01:10:17.583 : en:第 10 章

  117. 01:17:36.875 : en:第 11 章

  118. 01:24:21.333 : en:第 12 章


复制代码


TAGS 动作

磁力链:
  • magnet:?xt=urn:btih:46838E015A59BD26419C46F72E05265CF236A736
上传的附件:
BT9527电影天堂 1、BT9527电影天堂提供的BT文件均来源于互联网抓取,只供网友学习交流、技术提升使用。
2、我们遵守BitTorrent点对点协议原则,任何版权问题请联系原资源发布商,我们不处理任何版权纠纷,谢谢!如有争议请联系邮箱:BT9527#hotmail.com(#换成@)
3、如果您发现某页面或地址有错误,请联系站长邮箱BT9527#hotmail.com(#换成@),我们会尽快处理。您的热心是对BT9527电影天堂最大的支持。
4、本站建议去正规影院观看电影以支持电影行业发展。
最新回复 (0)

你可以在 登录 or 注册 后,对此帖发表评论!

返回
发新帖