X[简繁英字幕].X.2022.1080p.BluRay.DTS.x265-10bit-ENTHD 7.33GB

版主小s 6月前 555

◎译 名 X

◎年 代 2022

◎产 地 美国 / 加拿大

◎类 别 恐怖

◎语 言 英语

◎上映日期 2022-03-13(西南偏南电影节) / 2022-03-18(美国)

◎IMDb链接 https://www.imdb.com/title/tt13560574/

◎豆瓣评分 5.8/10 (17626人评价)

◎豆瓣链接 https://movie.douban.com/subject/35240920/

◎片 长 105分钟

◎导 演 缇·威斯特 Ti West (id:1027452)

◎编 剧 缇·威斯特 Ti West (id:1027452)

◎演 员 米娅·高斯 Mia Goth (id:1333367)

珍娜·奥尔特加 Jenna Ortega (id:1437862)

布兰特妮·斯诺 Brittany Snow (id:1031845)

卡迪小子 Kid Cudi (id:1273118)

马丁·亨德森 Martin Henderson (id:1027267)

欧文·坎贝尔 Owen Campbell (id:1313218)

史蒂芬·乌瑞 Stephen Ure (id:1155436)

詹姆斯·盖林 James Gaylyn (id:1411070)

西蒙·普拉斯特 Simon Prast (id:1469211)

吉奥夫·多兰 Geoff Dolan (id:1083161)

马修·塞维尔 Matthew Saville (id:1431282)

布莱恩妮·斯基林顿 Bryony Skillington (id:1469212)

◎简 介

麦克西恩(米娅·高斯 Mia Goth 饰)是一个做梦都想要出名的女孩,可现实是,她沉浸于毒品带来的幻觉和快感之中,并且即将出演一部由她的男友(马丁·亨德森 Martin Henderson 饰)指导的色情片。为了拍摄,麦克西恩和男友、摄影RJ(欧文·坎贝尔 Owen Campbell 饰)、场务洛林(珍娜·奥尔特加 Jenna Ortega 饰),以及另外的一对主演杰克森(卡迪小子 Kid Cudi 饰)、波比(布兰特妮·斯诺 Brittany Snow 饰)驱车来到了一幢地处偏远的宅子处。

宅子的所有者是名叫霍华德(史蒂芬·乌瑞 Stephen Ure 饰)的老人,他对于这帮年轻人的到来似乎并不欢迎。尽管如此,影片还是按照计划开拍了,在此过程中,年轻的肉体和浓烈的荷尔蒙似乎唤醒了深藏在霍华德妻子体内的某种欲望。

  1. ##### MediaInfo ######

  2. General

  3. Unique ID : 2397184177062583427147590935998798107 (0x1CDAE4E14110DA5EFE28D1C3872991B)

  4. Complete name : X.2022.1080p.BluRay.DTS.x265-10bit-ENTHD.mkv

  5. Format : Matroska

  6. Format version : Version 4

  7. File size : 7.32 GiB

  8. Duration : 1 h 46 min

  9. Overall bit rate : 9 860 kb/s

  10. Movie name : X 2022 1080p BluRay DTS x265-10bit-HDS

  11. Encoded date : UTC 2022-05-26 12:28:28

  12. Writing application : mkvmerge v67.0.0 ('Under Stars') 64-bit

  13. Writing library : libebml v1.4.2 + libmatroska v1.6.4

  14. Video

  15. ID : 1

  16. Format : HEVC

  17. Format/Info : High Efficiency Video Coding

  18. Format profile : Main 10@L5.1@High

  19. Codec ID : V_MPEGH/ISO/HEVC

  20. Duration : 1 h 46 min

  21. Bit rate : 8 296 kb/s

  22. Width : 1 920 pixels

  23. Height : 1 012 pixels

  24. Display aspect ratio : 1.897

  25. Frame rate mode : Constant

  26. Frame rate : 23.976 (24000/1001/53354) FPS

  27. Color space : YUV

  28. Chroma subsampling : 4:2:0

  29. Bit depth : 10 bits

  30. Bits/(Pixel*Frame) : 0.178

  31. Stream size : 6.16 GiB (84%)

  32. Title : Howfuckedareyounow@HDSky

  33. Writing library : x265 - H.265/HEVC codec

  34. Default : Yes

  35. Forced : No

  36. Audio

  37. ID : 2

  38. Format : DTS

  39. Format/Info : Digital Theater Systems

  40. Codec ID : A_DTS

  41. Duration : 1 h 46 min

  42. Bit rate mode : Constant

  43. Bit rate : 1 509 kb/s

  44. Channel(s) : 6 channels

  45. Channel layout : C L R Ls Rs LFE

  46. Sampling rate : 48.0 kHz

  47. Frame rate : 93.750 FPS (512 SPF)

  48. Bit depth : 24 bits

  49. Compression mode : Lossy

  50. Stream size : 1.12 GiB (15%)

  51. Title : English

  52. Language : English

  53. Default : Yes

  54. Forced : No

  55. Text #1

  56. ID : 3

  57. Format : PGS

  58. Muxing mode : zlib

  59. Codec ID : S_HDMV/PGS

  60. Codec ID/Info : Picture based subtitle format used on BDs/HD-DVDs

  61. Duration : 1 h 38 min

  62. Bit rate : 15.1 kb/s

  63. Count of elements : 1405

  64. Stream size : 10.7 MiB (0%)

  65. Title : CHS

  66. Language : Chinese

  67. Default : Yes

  68. Forced : No

  69. Text #2

  70. ID : 4

  71. Format : PGS

  72. Muxing mode : zlib

  73. Codec ID : S_HDMV/PGS

  74. Codec ID/Info : Picture based subtitle format used on BDs/HD-DVDs

  75. Duration : 1 h 38 min

  76. Bit rate : 15.7 kb/s

  77. Count of elements : 1405

  78. Stream size : 11.1 MiB (0%)

  79. Title : CHT

  80. Language : Chinese

  81. Default : Yes

  82. Forced : No

  83. Text #3

  84. ID : 5

  85. Format : PGS

  86. Muxing mode : zlib

  87. Codec ID : S_HDMV/PGS

  88. Codec ID/Info : Picture based subtitle format used on BDs/HD-DVDs

  89. Duration : 1 h 38 min

  90. Bit rate : 23.0 kb/s

  91. Count of elements : 1405

  92. Stream size : 16.3 MiB (0%)

  93. Title : CHS&ENG

  94. Language : Chinese

  95. Default : Yes

  96. Forced : No

  97. Text #4

  98. ID : 6

  99. Format : PGS

  100. Muxing mode : zlib

  101. Codec ID : S_HDMV/PGS

  102. Codec ID/Info : Picture based subtitle format used on BDs/HD-DVDs

  103. Duration : 1 h 38 min

  104. Bit rate : 23.4 kb/s

  105. Count of elements : 1405

  106. Stream size : 16.5 MiB (0%)

  107. Title : CHT&ENG

  108. Language : Chinese

  109. Default : Yes

  110. Forced : No

  111. Text #5

  112. ID : 7

  113. Format : PGS

  114. Muxing mode : zlib

  115. Codec ID : S_HDMV/PGS

  116. Codec ID/Info : Picture based subtitle format used on BDs/HD-DVDs

  117. Duration : 1 h 43 min

  118. Bit rate : 25.2 kb/s

  119. Count of elements : 2026

  120. Stream size : 18.7 MiB (0%)

  121. Title : ENG

  122. Language : English

  123. Default : Yes

  124. Forced : No

  125. Menu

  126. 00:00:00.000 : en:Chapter 01

  127. 00:04:41.448 : en:Chapter 02

  128. 00:12:51.646 : en:Chapter 03

  129. 00:22:53.330 : en:Chapter 04

  130. 00:28:03.140 : en:Chapter 05

  131. 00:34:36.324 : en:Chapter 06

  132. 00:41:08.299 : en:Chapter 07

  133. 00:44:42.013 : en:Chapter 08

  134. 00:52:38.989 : en:Chapter 09

  135. 00:56:59.541 : en:Chapter 10

  136. 01:02:38.296 : en:Chapter 11

  137. 01:08:46.414 : en:Chapter 12

  138. 01:15:00.538 : en:Chapter 13

  139. 01:22:18.892 : en:Chapter 14

  140. 01:32:12.861 : en:Chapter 15

  141. 01:38:23.022 : en:Chapter 16


复制代码


TAGS 恐怖

磁力链:
  • magnet:?xt=urn:btih:1B4A2C93A2B88511A3DC36D6AEFB4AE7D43A1D1D
上传的附件:
BT9527电影天堂 1、BT9527电影天堂提供的BT文件均来源于互联网抓取,只供网友学习交流、技术提升使用。
2、我们遵守BitTorrent点对点协议原则,任何版权问题请联系原资源发布商,我们不处理任何版权纠纷,谢谢!如有争议请联系邮箱:BT9527#hotmail.com(#换成@)
3、如果您发现某页面或地址有错误,请联系站长邮箱BT9527#hotmail.com(#换成@),我们会尽快处理。您的热心是对BT9527电影天堂最大的支持。
4、本站建议去正规影院观看电影以支持电影行业发展。
最新回复 (0)

你可以在 登录 or 注册 后,对此帖发表评论!

返回
发新帖