加勒比海盗5:死无对证[国英多音轨/简繁英特效字幕].2017.BluRay.1080p.x265.10bit.HDR.2Audios-MiniHD 7.22GB

版主小s 6月前 377



◎译  名 加勒比海盗5:死无对证 / 加勒比海盗:恶灵启航(港) / 加勒比海盗 神鬼奇航:死无对证(台) / 加勒比海盗5:亡灵的缄默 / 加勒比海盗5:亡者无言 / 加勒比海盗5:死人不会告密 / Pirates of the Caribbean 5
◎片  名 Pirates of the Caribbean: Dead Men Tell No Tales
◎年  代 2017
◎产  地 美国
◎类  别 动作 / 奇幻 / 冒险
◎语  言 英语
◎上映日期 2017-05-26(中国大陆/美国)
◎IMDb链接 https://www.imdb.com/title/tt1790809/
◎豆瓣评分 7.2/10 (342489人评价)
◎豆瓣链接 https://movie.douban.com/subject/6311303/
◎片  长 129分钟
◎导  演 艾斯彭·山德伯格 Espen Sandberg (id:1019391)
       乔阿吉姆·罗恩尼 Joachim R?nning (id:1216851)
◎编  剧 特里·鲁西奥 Terry Rossio (id:1009677)
       泰德·艾略特 Ted Elliott (id:1283130)
       斯图尔特·贝亚蒂耶 Stuart Beattie (id:1278161)
       杰夫·内桑森 Jeff Nathanson (id:1292932)
       杰·沃尔伯特 Jay Wolpert (id:1344903)
◎演  员 约翰尼·德普 Johnny Depp (id:1054456)
       布伦顿·思韦茨 Brenton Thwaites (id:1325896)
       卡雅·斯考达里奥 Kaya Scodelario (id:1031178)
       杰弗里·拉什 Geoffrey Rush (id:1010543)
       哈维尔·巴登 Javier Bardem (id:1054414)
       格什菲·法拉哈尼 Golshifteh Farahani (id:1009332)
       奥兰多·布鲁姆 Orlando Bloom (id:1008069)
       凯文·麦克纳利 Kevin McNally (id:1123046)
       凯拉·奈特莉 Keira Knightley (id:1054448)
       斯蒂芬·格拉汉姆 Stephen Graham (id:1025229)
       大卫·文翰 David Wenham (id:1049573)
       保罗·麦卡特尼 Paul McCartney (id:1019076)
       马丁·科勒巴 Martin Klebba (id:1010683)
       亚当·布朗 Adam Brown (id:1325972)
       丹尼·基兰 Danny Kirrane (id:1343592)
       马赫什·扎杜 Mahesh Jadu (id:1234109)
       胡安·卡洛斯·凡希多 Juan Carlos Vellido (id:1150372)
       派珀·奈恩 Piper Nairn (id:1420385)
       安东尼·德拉托尔 Anthony De La Torre (id:1375054)
       詹姆斯·麦凯 James Mackay (id:1385307)
       罗伯特·摩根 Robert Morgan (id:1292503)
       安格斯·巴尼特 Angus Barnett (id:1429353)
       杰瑞·布鲁克海默 Jerry Bruckheimer (id:1049617)
       吉奥夫·赞里 Geoff Zanelli (id:1028419)
       罗杰·巴顿 Roger Barton (id:1421372)
       佩妮·罗斯 Penny Rose (id:1296044)
       戴维·温斯坦 David Weinstein (id:1041934)
       伊利亚·阿法纳西耶夫 Illia Afanasiev (id:1405394)
       卡洛斯·华达德 Carlos Ciudad (id:1414095)
       阿兹拉·阿尔坎 Azra Alkan (id:1419114)

◎简  介
  故事发生在《加勒比海盗3:世界的尽头》沉船湾之战20年后。 男孩亨利(布兰顿·思怀兹 Brenton Thwaites 饰)随英国海军出航寻找被聚魂棺诅咒的父亲“深海阎王”威尔·特纳(奥兰多·布鲁姆 Orlando Bloom 饰),却在百慕大三角遭遇被解封的亡灵萨拉查船长(哈维尔·巴登 Javier Bardem 饰)。获取自由的萨拉查屠尽加勒比海盗,征服了整个海域,手刃了“黑胡子”爱德华·蒂奇(伊恩·麦柯肖恩 Ian McShane 饰)的里海海盗王赫克托·巴博萨船长(杰弗里·拉什 Geoffrey Rush 饰)在女巫Haifaa Meni(格什菲·法拉哈尼 Golshifteh Farahani 饰)口中得知了萨拉查的真实目的:为寻找他的宿敌杰克船长(约翰尼·德普 Johnny Depp 饰)。海盗的命运皆压在落魄的老杰克被封印的黑珍珠号,以...

◎获奖情况 (共4项)
  第38届金酸莓奖 (2018)
  最差男主角(提名)
   └──约翰尼·德普 (id:1054456)
  最差银幕组合(提名)
   └──约翰尼·德普 (id:1054456)

  第4届豆瓣电影年度榜单 (2017)
  5月最受关注电影(提名)

  第3届豆瓣电影年度榜单 (2016)
  最值得期待的外语电影

  1. ##### MediaInfo ######
  2. General
  3. Unique ID                                : 213215108220404494424481314911846980240 (0xA067BC7470D246B09936AEA0041CDA90)
  4. Complete name                            : Pirates.of.the.Caribbean.Dead.Men.Tell.No.Tales.2017.BluRay.1080p.x265.10bit.HDR.2Audios-MiniHD.mkv
  5. Format                                   : Matroska
  6. Format version                           : Version 4
  7. File size                                : 7.22 GiB
  8. Duration                                 : 2 h 9 min
  9. Overall bit rate                         : 8 008 kb/s
  10. Encoded date                             : UTC 2017-12-02 01:50:15
  11. Writing application                      : mkvmerge v18.0.0 ('Apricity') 64-bit
  12. Writing library                          : libebml v1.3.5 + libmatroska v1.4.8
  13. Video
  14. ID                                       : 1
  15. Format                                   : HEVC
  16. Format/Info                              : High Efficiency Video Coding
  17. Format profile                           : Main 10@L5.1@High
  18. HDR format                               : SMPTE ST 2086, HDR10 compatible
  19. Codec ID                                 : V_MPEGH/ISO/HEVC
  20. Duration                                 : 2 h 9 min
  21. Bit rate                                 : 6 180 kb/s
  22. Width                                    : 1 920 pixels
  23. Height                                   : 800 pixels
  24. Display aspect ratio                     : 2.40:1
  25. Frame rate mode                          : Constant
  26. Frame rate                               : 23.976 (24000/1001/53354) FPS
  27. Color space                              : YUV
  28. Chroma subsampling                       : 4:2:0 (Type 2)
  29. Bit depth                                : 10 bits
  30. Bits/(Pixel*Frame)                       : 0.168
  31. Stream size                              : 5.57 GiB (77%)
  32. Writing library                          : x265 2.5+27-0e168bdeb48b:[Windows][MSVC 1911][64 bit] 10bit
  33. Encoding settings                        : cpuid=533541050111 / frame-threads=4 / numa-pools=-,* / wpp / no-pmode / no-pme / no-psnr / no-ssim / log-level=2 / csvfn=D:\x265-workspace\output\p\00007.1080.csv / csv-log-level=0 / input-csp=1 / input-res=1920x800 / interlace=0 / total-frames=0 / level-idc=51 / high-tier=1 / uhd-bd=0 / ref=5 / no-allow-non-conformance / repeat-headers / annexb / aud / hrd / info / hash=0 / no-temporal-layers / no-open-gop / min-keyint=1 / keyint=360 / bframes=9 / b-adapt=2 / b-pyramid / bframe-bias=0 / rc-lookahead=60 / lookahead-slices=4 / NTMzNTQ=uuDQuD2mJt9fsCf / scenecut=40 / no-intra-refresh / ctu=32 / min-cu-size=8 / no-rect / no-amp / max-tu-size=32 / tu-inter-depth=2 / tu-intra-depth=2 / limit-tu=3 / rdoq-level=2 / dynamic-rd=0.00 / ssim-rd / signhide / no-tskip / nr-intra=0 / nr-inter=0 / no-constrained-intra / no-strong-intra-smoothing / max-merge=3 / limit-refs=2 / limit-modes / me=3 / subme=5 / merange=25 / temporal-mvp / weightp / weightb / no-analyze-src-pics / deblock=-1:-1 / no-sao / no-sao-non-deblock / rd=4 / no-early-skip / no-rskip / no-fast-intra / no-tskip-fast / no-cu-lossless / b-intra / no-splitrd-skip / rdpenalty=1 / psy-rd=0.00 / psy-rdoq=8.00 / no-rd-refine / analysis-reuse-mode=0 / no-lossless / cbqpoffs=-2 / crqpoffs=-2 / rc=crf / crf=17.0 / qcomp=0.70 / qpstep=4 / stats-write=0 / stats-read=0 / vbv-maxrate=100000 / vbv-bufsize=100000 / vbv-init=0.9 / crf-max=0.0 / crf-min=0.0 / ipratio=1.30 / pbratio=1.20 / aq-mode=3 / aq-strength=0.90 / cutree / zone-count=0 / no-strict-cbr / qg-size=32 / no-rc-grain / qpmax=69 / qpmin=0 / no-const-vbv / sar=0 / overscan=0 / videoformat=5 / range=0 / colorprim=9 / transfer=16 / colormatrix=9 / chromaloc=1 / chromaloc-top=2 / chromaloc-bottom=2 / display-window=0 / master-display=G(13250,34500)B(7500,3000)R(34000,16000)WP(15635,16450)L(10000000,50) / max-cll=0,0 / min-luma=0 / max-luma=1023 / log2-max-poc-lsb=8 / vui-timing-info / vui-hrd-info / slices=1 / opt-qp-pps / opt-ref-list-length-pps / no-multi-pass-opt-rps / scenecut-bias=0.05 / no-opt-cu-delta-qp / no-aq-motion / hdr / hdr-opt / no-dhdr10-opt / analysis-reuse-level=5 / scale-factor=0 / refine-intra=0 / refine-inter=0 / refine-mv=0 / no-limit-sao / ctu-info=0
  34. Default                                  : Yes
  35. Forced                                   : No
  36. Color range                              : Limited
  37. Color primaries                          : BT.2020
  38. Transfer characteristics                 : PQ
  39. Matrix coefficients                      : BT.2020 non-constant
  40. Mastering display color primaries        : Display P3
  41. Mastering display luminance              : min: 0.0050 cd/m2, max: 1000 cd/m2
  42. Audio #1
  43. ID                                       : 2
  44. Format                                   : E-AC-3
  45. Format/Info                              : Enhanced AC-3
  46. Commercial name                          : Dolby Digital Plus
  47. Format profile                           : Blu-ray Disc
  48. Codec ID                                 : A_EAC3
  49. Duration                                 : 2 h 9 min
  50. Bit rate mode                            : Constant
  51. Bit rate                                 : 1 024 kb/s
  52. Channel(s)                               : 6 channels
  53. Channel(s)_Original                      : 8 channels
  54. ChannelLayout_Original                   : L R C LFE Ls Rs Lrs Rrs
  55. Sampling rate                            : 48.0 kHz
  56. Frame rate                               : 31.250 FPS (1536 SPF)
  57. Compression mode                         : Lossy
  58. Stream size                              : 946 MiB (13%)
  59. Title                                    : 英语 E-AC-3
  60. Language                                 : English
  61. Service kind                             : Complete Main
  62. Default                                  : Yes
  63. Forced                                   : No
  64. Audio #2
  65. ID                                       : 3
  66. Format                                   : AC-3
  67. Format/Info                              : Audio Coding 3
  68. Commercial name                          : Dolby Digital
  69. Codec ID                                 : A_AC3
  70. Duration                                 : 2 h 9 min
  71. Bit rate mode                            : Constant
  72. Bit rate                                 : 640 kb/s
  73. Channel(s)                               : 6 channels
  74. Channel layout                           : L R C LFE Ls Rs
  75. Sampling rate                            : 48.0 kHz
  76. Frame rate                               : 31.250 FPS (1536 SPF)
  77. Compression mode                         : Lossy
  78. Stream size                              : 591 MiB (8%)
  79. Title                                    : 国语 AC-3
  80. Language                                 : Chinese
  81. Service kind                             : Complete Main
  82. Default                                  : No
  83. Forced                                   : No
  84. Text #1
  85. ID                                       : 4
  86. Format                                   : PGS
  87. Muxing mode                              : zlib
  88. Codec ID                                 : S_HDMV/PGS
  89. Codec ID/Info                            : Picture based subtitle format used on BDs/HD-DVDs
  90. Duration                                 : 2 h 7 min
  91. Bit rate                                 : 32.8 kb/s
  92. Count of elements                        : 3544
  93. Stream size                              : 30.0 MiB (0%)
  94. Title                                    : 英文
  95. Language                                 : English
  96. Default                                  : Yes
  97. Forced                                   : No
  98. Text #2
  99. ID                                       : 5
  100. Format                                   : PGS
  101. Muxing mode                              : zlib
  102. Codec ID                                 : S_HDMV/PGS
  103. Codec ID/Info                            : Picture based subtitle format used on BDs/HD-DVDs
  104. Duration                                 : 2 h 8 min
  105. Bit rate                                 : 64.0 kb/s
  106. Count of elements                        : 5621
  107. Stream size                              : 58.9 MiB (1%)
  108. Title                                    : 简中英文特效
  109. Language                                 : Chinese
  110. Default                                  : No
  111. Forced                                   : No
  112. Text #3
  113. ID                                       : 6
  114. Format                                   : PGS
  115. Muxing mode                              : zlib
  116. Codec ID                                 : S_HDMV/PGS
  117. Codec ID/Info                            : Picture based subtitle format used on BDs/HD-DVDs
  118. Duration                                 : 2 h 8 min
  119. Bit rate                                 : 64.6 kb/s
  120. Count of elements                        : 5621
  121. Stream size                              : 59.4 MiB (1%)
  122. Title                                    : 繁中英文特效
  123. Language                                 : Chinese
  124. Default                                  : No
  125. Forced                                   : No
  126. Text #4
  127. ID                                       : 7
  128. Format                                   : PGS
  129. Muxing mode                              : zlib
  130. Codec ID                                 : S_HDMV/PGS
  131. Codec ID/Info                            : Picture based subtitle format used on BDs/HD-DVDs
  132. Duration                                 : 2 h 8 min
  133. Bit rate                                 : 50.0 kb/s
  134. Count of elements                        : 5621
  135. Stream size                              : 46.0 MiB (1%)
  136. Title                                    : 简中特效
  137. Language                                 : Chinese
  138. Default                                  : No
  139. Forced                                   : No
  140. Text #5
  141. ID                                       : 8
  142. Format                                   : PGS
  143. Muxing mode                              : zlib
  144. Codec ID                                 : S_HDMV/PGS
  145. Codec ID/Info                            : Picture based subtitle format used on BDs/HD-DVDs
  146. Duration                                 : 2 h 8 min
  147. Bit rate                                 : 50.6 kb/s
  148. Count of elements                        : 5621
  149. Stream size                              : 46.5 MiB (1%)
  150. Title                                    : 繁中特效
  151. Language                                 : Chinese
  152. Default                                  : No
  153. Forced                                   : No
  154. Menu
  155. 00:00:00.000                             : en:00:00:00.000
  156. 00:05:49.558                             : en:00:05:49.558
  157. 00:08:34.264                             : en:00:08:34.264
  158. 00:13:40.862                             : en:00:13:40.862
  159. 00:16:29.197                             : en:00:16:29.197
  160. 00:22:33.894                             : en:00:22:33.894
  161. 00:25:19.309                             : en:00:25:19.309
  162. 00:28:06.143                             : en:00:28:06.143
  163. 00:31:41.817                             : en:00:31:41.817
  164. 00:33:44.856                             : en:00:33:44.856
  165. 00:37:02.095                             : en:00:37:02.095
  166. 00:42:27.754                             : en:00:42:27.754
  167. 00:49:09.113                             : en:00:49:09.113
  168. 00:54:00.320                             : en:00:54:00.320
  169. 00:57:19.436                             : en:00:57:19.436
  170. 01:00:38.760                             : en:01:00:38.760
  171. 01:08:29.981                             : en:01:08:29.981
  172. 01:11:57.063                             : en:01:11:57.063
  173. 01:16:50.981                             : en:01:16:50.981
  174. 01:19:27.513                             : en:01:19:27.513
  175. 01:25:04.850                             : en:01:25:04.850
  176. 01:27:42.215                             : en:01:27:42.215
  177. 01:31:43.832                             : en:01:31:43.832
  178. 01:38:22.855                             : en:01:38:22.855
  179. 01:42:36.817                             : en:01:42:36.817
  180. 01:47:23.604                             : en:01:47:23.604
  181. 01:52:58.730                             : en:01:52:58.730
  182. 01:59:09.976                             : en:01:59:09.976
复制代码




TAGS 动作 奇幻 冒险 /

磁力链:
  • magnet:?xt=urn:btih:FE5C233A5CA9CACD806FA13E53A9933223AB2785
上传的附件:
BT9527电影天堂 1、BT9527电影天堂提供的BT文件均来源于互联网抓取,只供网友学习交流、技术提升使用。
2、我们遵守BitTorrent点对点协议原则,任何版权问题请联系原资源发布商,我们不处理任何版权纠纷,谢谢!如有争议请联系邮箱:BT9527#hotmail.com(#换成@)
3、如果您发现某页面或地址有错误,请联系站长邮箱BT9527#hotmail.com(#换成@),我们会尽快处理。您的热心是对BT9527电影天堂最大的支持。
4、本站建议去正规影院观看电影以支持电影行业发展。
最新回复 (0)

你可以在 登录 or 注册 后,对此帖发表评论!

返回
发新帖