午夜巴黎[中英字幕].Midnight.in.Paris.2011.BluRay.1080p.x265.10bit-MiniHD 4.47GB

版主小s 6月前 440



◎译  名 午夜巴黎 / 情迷午夜巴黎(港) / 午夜·巴黎(台)
◎片  名 Midnight in Paris
◎年  代 2011
◎产  地 西班牙 / 美国 / 法国
◎类  别 剧情 / 爱情 / 奇幻
◎语  言 英语 / 法语 / 西班牙语 / 德语
◎上映日期 2011-05-13(西班牙) / 2011-06-10(美国)
◎IMDb链接 https://www.imdb.com/title/tt1605783/
◎豆瓣评分 8.3/10 (293102人评价)
◎豆瓣链接 https://movie.douban.com/subject/4319218/
◎片  长 94分钟
◎导  演 伍迪·艾伦 Woody Allen (id:1054430)
◎编  剧 伍迪·艾伦 Woody Allen (id:1054430)
◎演  员 欧文·威尔逊 Owen Wilson (id:1006964)
       玛丽昂·歌迪亚 Marion Cotillard (id:1006955)
       瑞秋·麦克亚当斯 Rachel McAdams (id:1053587)
       汤姆·希德勒斯顿 Tom Hiddleston (id:1004596)
       凯西·贝茨 Kathy Bates (id:1010555)
       艾德里安·布洛迪 Adrien Brody (id:1002665)
       蕾雅·赛杜 Léa Seydoux (id:1009295)
       麦克·辛 Michael Sheen (id:1004566)
       寇瑞·斯托尔 Corey Stoll (id:1315557)
       妮娜·阿里安达 Nina Arianda (id:1321433)
       米密·肯尼迪 Mimi Kennedy (id:1027418)
       柯特·富勒 Kurt Fuller (id:1049882)
       卡拉·布吕尼 Carla Bruni (id:1014127)
       加德·艾尔马莱 Gad Elmaleh (id:1000477)
       艾丽森·皮尔 Alison Pill (id:1036381)
       奥利维尔·雷堡汀 Olivier Rabourdin (id:1275015)
       Laurent Spielvogel Laurent Spielvogel (id:1159257)
       丹尼尔·隆德 Daniel Lundh (id:1417311)
       奥德雷·弗勒罗 Audrey Fleurot (id:1317872)
       卡琳·瓦纳斯 Karine Vanasse (id:1037071)
       马希尔·迪·冯佐布 Marcial Di Fonzo Bo (id:1317527)
        Lil Mirkk (id:1264215)
       路斯特·斯朵 Rusty Stoll (id:1200773)
       莱蒂·艾伦森 Letty Aronson (id:1324792)
       斯蒂芬·特南鲍姆 Stephen Tenenbaum (id:1324794)
       Rapha?l Benoliel Rapha?l Benoliel (id:1045687)
       科尔 波特 Cole Porter (id:1018309)
       达吕斯·康第 Darius Khondji (id:1028011)
       茱莉叶·泰勒 Juliet Taylor (id:1299000)
       伊莲·杜布罗伊 Hélène Dubreuil (id:1324867)
       索尼娅·格兰德 Sonia Grande (id:1334111)

◎简  介
  吉尔(欧文?威尔逊 Owen Wilson 饰)携未婚妻伊内兹(瑞秋?麦克亚当斯 Rachel McAdams 饰)陪着岳父岳母来巴黎度假。他希望留在巴黎完成自己的第一部小说,但是伊内兹及其父母坚决反对。在一次用餐时,伊内兹遇到了昔日同学保罗夫妇,他们一同出游。保罗到处卖弄,跟导游(卡拉?布吕尼 Carla Bruni 饰)喋喋不休,令吉尔反感不已。午夜时分,他独自走在巴黎的街头,却被一辆路过的马车吸引住了。他随马车来到了一个名流派对,阴差阳错地结识了海明威、毕加索、菲茨杰拉德、达利(阿德里安?布洛迪 Adrien Brody 饰)、斯坦因(凯西?贝茨 Kathy Bates 饰)等,而且他更是迷恋上了毕加索和莫迪尼亚里的情人阿德里亚娜(玛丽昂?歌迪亚 Marion Cotillard 饰)。他乐此不疲地穿越,而由此发生的一切都让他无可救药地爱上了巴...

◎获奖情况 (共32项)
  第84届奥斯卡金像奖 (2012)
  最佳影片(提名)
  最佳导演(提名)
   └──伍迪·艾伦 (id:1054430)
  最佳原创剧本
   └──伍迪·艾伦 (id:1054430)
  最佳艺术指导(提名)

  第69届金球奖 (2012)
  电影类 最佳音乐/喜剧片(提名)
  电影类 最佳导演(提名)
   └──伍迪·艾伦 (id:1054430)
  电影类 音乐/喜剧片最佳男主角(提名)
   └──欧文·威尔逊 (id:1006964)
  电影类 最佳编剧
   └──伍迪·艾伦 (id:1054430)

  第26届西班牙戈雅奖 (2012)
  最佳原创剧本(提名)
   └──伍迪·艾伦 (id:1054430)

  第77届纽约影评人协会奖 (2011)
  最佳剧本(提名)
   └──伍迪·艾伦 (id:1054430)

  第17届美国评论家选择电影奖 (2012)
  最佳影片(提名)
  最佳喜剧片(提名)
  最佳原创剧本
   └──伍迪·艾伦 (id:1054430)

  第27届美国独立精神奖 (2012)
  最佳男配角(提名)
   └──寇瑞·斯托尔 (id:1315557)
  最佳摄影(提名)
   └──达吕斯·康第 (id:1028011)

  第12届美国电影学会奖 (2011)
  年度佳片

  第10届华盛顿影评人协会奖 (2011)
  最佳导演(提名)
   └──伍迪·艾伦 (id:1054430)
  最佳原创剧本(提名)
   └──伍迪·艾伦 (id:1054430)

  第16届圣地亚哥影评人协会奖 (2011)
  最佳影片(提名)
  最佳导演(提名)
   └──伍迪·艾伦 (id:1054430)
  最佳原创剧本
   └──伍迪·艾伦 (id:1054430)
  最佳艺术指导(提名)
   └──安妮·赛贝尔 (id:1297558)
  最佳群像表演(提名)

  第24届芝加哥影评人协会奖 (2011)
  最佳原创剧本(提名)
   └──伍迪·艾伦 (id:1054430)

  第11届凤凰城影评人协会奖 (2011)
  最佳导演(提名)
   └──伍迪·艾伦 (id:1054430)
  最佳原创剧本(提名)
   └──伍迪·艾伦 (id:1054430)
  最佳群像表演(提名)
  十佳影片

  第20届东南影评人协会奖 (2011)
  最佳原创剧本
   └──伍迪·艾伦 (id:1054430)
  十大佳片

  第2届豆瓣电影鑫像奖 (2012)
  鑫豆单元 最佳影片(外语)(提名)
  鑫豆单元 最佳导演(外语)
   └──伍迪·艾伦 (id:1054430)

  1. ##### MediaInfo ######
  2. General
  3. Unique ID                                : 198827104355931650177531856995299131289 (0x9594B51865244CA895A6F33AC5807F99)
  4. Complete name                            : Midnight.in.Paris.2011.BluRay.1080p.x265.10bit-MiniHD.mkv
  5. Format                                   : Matroska
  6. Format version                           : Version 4
  7. File size                                : 4.47 GiB
  8. Duration                                 : 1 h 34 min
  9. Overall bit rate                         : 6 788 kb/s
  10. Encoded date                             : UTC 2017-09-04 06:09:57
  11. Writing application                      : mkvmerge v11.0.0 ('Alive') 64bit
  12. Writing library                          : libebml v1.3.4 + libmatroska v1.4.5
  13. Video
  14. ID                                       : 1
  15. Format                                   : HEVC
  16. Format/Info                              : High Efficiency Video Coding
  17. Codec ID                                 : V_MPEGH/ISO/HEVC
  18. Duration                                 : 1 h 34 min
  19. Bit rate                                 : 6 013 kb/s
  20. Width                                    : 1 920 pixels
  21. Height                                   : 1 038 pixels
  22. Display aspect ratio                     : 1.85:1
  23. Frame rate mode                          : Constant
  24. Frame rate                               : 23.976 (24000/1001/53354) FPS
  25. Bits/(Pixel*Frame)                       : 0.126
  26. Stream size                              : 3.96 GiB (89%)
  27. Default                                  : Yes
  28. Forced                                   : No
  29. Audio
  30. ID                                       : 2
  31. Format                                   : AC-3
  32. Format/Info                              : Audio Coding 3
  33. Commercial name                          : Dolby Digital
  34. Codec ID                                 : A_AC3
  35. Duration                                 : 1 h 34 min
  36. Bit rate mode                            : Constant
  37. Bit rate                                 : 640 kb/s
  38. Channel(s)                               : 3 channels
  39. Channel layout                           : L R C
  40. Sampling rate                            : 48.0 kHz
  41. Frame rate                               : 31.250 FPS (1536 SPF)
  42. Compression mode                         : Lossy
  43. Stream size                              : 432 MiB (9%)
  44. Language                                 : English
  45. Service kind                             : Complete Main
  46. Default                                  : Yes
  47. Forced                                   : No
  48. Text #1
  49. ID                                       : 3
  50. Format                                   : PGS
  51. Muxing mode                              : zlib
  52. Codec ID                                 : S_HDMV/PGS
  53. Codec ID/Info                            : Picture based subtitle format used on BDs/HD-DVDs
  54. Language                                 : English
  55. Default                                  : Yes
  56. Forced                                   : No
  57. Text #2
  58. ID                                       : 4
  59. Format                                   : PGS
  60. Muxing mode                              : zlib
  61. Codec ID                                 : S_HDMV/PGS
  62. Codec ID/Info                            : Picture based subtitle format used on BDs/HD-DVDs
  63. Language                                 : Chinese
  64. Default                                  : No
  65. Forced                                   : No
  66. Menu
  67. 00:00:00.000                             : en:Chapter 01
  68. 00:05:21.529                             : en:Chapter 02
  69. 00:12:25.995                             : en:Chapter 03
  70. 00:16:18.686                             : en:Chapter 04
  71. 00:24:03.900                             : en:Chapter 05
  72. 00:29:23.636                             : en:Chapter 06
  73. 00:35:47.812                             : en:Chapter 07
  74. 00:43:05.541                             : en:Chapter 08
  75. 00:47:53.287                             : en:Chapter 09
  76. 00:53:56.816                             : en:Chapter 10
  77. 00:58:34.928                             : en:Chapter 11
  78. 01:04:15.977                             : en:Chapter 12
  79. 01:11:06.387                             : en:Chapter 13
  80. 01:18:11.436                             : en:Chapter 14
  81. 01:24:27.187                             : en:Chapter 15
  82. 01:28:42.525                             : en:Chapter 16
复制代码




TAGS 奇幻 剧情 爱情 /

磁力链:
  • magnet:?xt=urn:btih:F5580CF0DD6C6519E7F68F9FA8125B2737742FE3
上传的附件:
BT9527电影天堂 1、BT9527电影天堂提供的BT文件均来源于互联网抓取,只供网友学习交流、技术提升使用。
2、我们遵守BitTorrent点对点协议原则,任何版权问题请联系原资源发布商,我们不处理任何版权纠纷,谢谢!如有争议请联系邮箱:BT9527#hotmail.com(#换成@)
3、如果您发现某页面或地址有错误,请联系站长邮箱BT9527#hotmail.com(#换成@),我们会尽快处理。您的热心是对BT9527电影天堂最大的支持。
4、本站建议去正规影院观看电影以支持电影行业发展。
最新回复 (0)

你可以在 登录 or 注册 后,对此帖发表评论!

返回
发新帖