午夜狂奔[国英多音轨/中英字幕].Midnight.Run.1988.BluRay.1080p.x265.10bit.3Audio-MiniHD 8.50GB

版主小s 6月前 386



◎译  名 午夜狂奔
◎片  名 Midnight Run
◎年  代 1988
◎产  地 美国
◎类  别 喜剧 / 动作 / 犯罪 / 冒险
◎语  言 英语
◎上映日期 1988-07-20(美国)
◎IMDb链接 https://www.imdb.com/title/tt0095631/
◎豆瓣评分 8.5/10 (22956人评价)
◎豆瓣链接 https://movie.douban.com/subject/1294699/
◎片  长 126 分钟
◎导  演 马丁·布莱斯特 Martin Brest (id:1055265)
◎编  剧 乔治·加洛 George Gallo (id:1284451)
◎演  员 罗伯特·德尼罗 Robert De Niro (id:1054445)
       查尔斯·格罗丁 Charles Grodin (id:1048196)
       亚非特·科托 Yaphet Kotto (id:1041210)
       约翰·阿什顿 John Ashton (id:1060305)
       丹尼斯·法里纳 Dennis Farina (id:1031993)
       乔·潘托里亚诺 Joe Pantoliano (id:1049557)
       理查德·弗让吉 Richard Foronjy (id:1087428)
       杰克·基欧 Jack Kehoe (id:1103670)
       菲利普·贝克·霍尔 Philip Baker Hall (id:1049779)
       斯科特·麦克菲 Scott McAfee (id:1291403)
       罗伊丝·史密斯 Lois Smith (id:1151084)
       弗兰·布里尔 Fran Brill (id:1076372)
       卢·费尔德 Lou Felder (id:1055904)
       崔西·沃特 Tracey Walter (id:1164847)
       波波·马罗夫 Bob Maroff (id:1125347)
       汤姆·埃尔文 Tom Irwin (id:1108979)
       吉米·雷·威克斯 Jimmie Ray Weeks (id:1167644)
       马丁·布莱斯特 Martin Brest (id:1055265)
       丹尼·沃霍尔 Dan Charles Zukoski (id:1162242)
       Robert Miranda Robert Miranda (id:1350584)
       Wendy Phillips Wendy Phillips (id:1128066)
       Danielle DuClos Danielle DuClos (id:1086499)
       Mary Gillis Mary Gillis (id:1093935)
       Thomas J. Hageboeck Thomas J. Hageboeck (id:1094296)
       Michael Hawkins Michael Hawkins (id:1092580)
       John Hammil John Hammil (id:1101362)
       Paul Joseph McKenna Paul Joseph McKenna (id:1121295)
       Jack N. Young Jack N. Young (id:1167014)
       James Portolese James Portolese (id:1019774)
       Armando Muniz Armando Muniz (id:1128810)
       Terry Ray Terry Ray (id:1295296)
       约翰·阿什顿 John Ashton (id:1058297)
       丹尼·艾夫曼 Danny Elfman (id:1019059)
       迈克尔·特罗尼克 Michael Tronick (id:1299544)
       比利·韦伯 Billy Weber (id:1300592)
       邦妮·蒂默曼 Bonnie Timmermann (id:1299285)
       詹姆斯·J·默拉卡米 James J. Murakami (id:1292724)
       安杰洛·P·格雷厄姆 Angelo P. Graham (id:1285271)
       格洛里亚·格雷斯汉 Gloria Gresham (id:1285438)
       Christine Lee Christine Lee (id:1289649)
       Dino Ganziano Dino Ganziano (id:1284482)
       Bryan Denegal Bryan Denegal (id:1282241)

◎简  介
  赏金猎人杰克?沃尔什(罗伯特?德尼罗 Robert De Niro 饰)为十万美元决定去纽约搜捕芝加哥黑帮头子吉米?瑟拉诺(丹尼斯?法里纳 Dennis Farina 饰)的会计乔纳森?马杜克斯(查尔斯?格罗丁 Charles Grodin 饰)。乔纳森贪污了吉米一千五百万美元,并将大部分钱捐给了慈善机构。杰克本打算带乔纳森乘飞机于周五午夜前抵达洛杉矶,但乔纳森患有飞行恐惧症,二人只好转乘火车。于此同时,FBI探员阿朗佐?莫斯利(亚菲特?卡托 Yaphet Kotto 饰)、吉米的黑帮手下及吉米的竞争对手,赏金猎人马文(约翰?阿什顿 John Ashton 饰)都在追踪二人。杰克与乔纳森险况横出爆笑风趣的旅程究竟能否顺利完成?                                    
                                本片获金球奖最佳喜剧/音乐剧提名及最佳男主角提名(罗伯特?德尼罗)。

  1. ##### MediaInfo ######
  2. General
  3. Unique ID                                : 189574354969951467574339469978402444568 (0x8E9EB1544AE58FB188F7EB5FC1AE5518)
  4. Complete name                            : Midnight.Run.1988.BluRay.1080p.x265.10bit.3Audio-MiniHD.mkv
  5. Format                                   : Matroska
  6. Format version                           : Version 4
  7. File size                                : 8.50 GiB
  8. Duration                                 : 2 h 6 min
  9. Overall bit rate                         : 9 631 kb/s
  10. Encoded date                             : UTC 2017-07-28 06:22:56
  11. Writing application                      : mkvmerge v11.0.0 ('Alive') 64bit
  12. Writing library                          : libebml v1.3.4 + libmatroska v1.4.5
  13. Video
  14. ID                                       : 1
  15. Format                                   : HEVC
  16. Format/Info                              : High Efficiency Video Coding
  17. Codec ID                                 : V_MPEGH/ISO/HEVC
  18. Duration                                 : 2 h 6 min
  19. Bit rate                                 : 7 903 kb/s
  20. Width                                    : 1 920 pixels
  21. Height                                   : 1 040 pixels
  22. Display aspect ratio                     : 1.85:1
  23. Frame rate mode                          : Constant
  24. Frame rate                               : 23.976 (24000/1001/53354) FPS
  25. Bits/(Pixel*Frame)                       : 0.165
  26. Stream size                              : 6.97 GiB (82%)
  27. Default                                  : Yes
  28. Forced                                   : No
  29. Audio #1
  30. ID                                       : 2
  31. Format                                   : AC-3
  32. Format/Info                              : Audio Coding 3
  33. Commercial name                          : Dolby Digital
  34. Codec ID                                 : A_AC3
  35. Duration                                 : 2 h 6 min
  36. Bit rate mode                            : Constant
  37. Bit rate                                 : 640 kb/s
  38. Channel(s)                               : 6 channels
  39. Channel layout                           : L R C LFE Ls Rs
  40. Sampling rate                            : 48.0 kHz
  41. Frame rate                               : 31.250 FPS (1536 SPF)
  42. Compression mode                         : Lossy
  43. Stream size                              : 578 MiB (7%)
  44. Language                                 : English
  45. Service kind                             : Complete Main
  46. Default                                  : Yes
  47. Forced                                   : No
  48. Audio #2
  49. ID                                       : 3
  50. Format                                   : AC-3
  51. Format/Info                              : Audio Coding 3
  52. Commercial name                          : Dolby Digital
  53. Codec ID                                 : A_AC3
  54. Duration                                 : 2 h 6 min
  55. Bit rate mode                            : Constant
  56. Bit rate                                 : 448 kb/s
  57. Channel(s)                               : 2 channels
  58. Channel layout                           : L R
  59. Sampling rate                            : 48.0 kHz
  60. Frame rate                               : 31.250 FPS (1536 SPF)
  61. Compression mode                         : Lossy
  62. Stream size                              : 405 MiB (5%)
  63. Language                                 : Chinese
  64. Service kind                             : Complete Main
  65. Default                                  : No
  66. Forced                                   : No
  67. Audio #3
  68. ID                                       : 4
  69. Format                                   : AC-3
  70. Format/Info                              : Audio Coding 3
  71. Commercial name                          : Dolby Digital
  72. Codec ID                                 : A_AC3
  73. Duration                                 : 2 h 6 min
  74. Bit rate mode                            : Constant
  75. Bit rate                                 : 448 kb/s
  76. Channel(s)                               : 2 channels
  77. Channel layout                           : L R
  78. Sampling rate                            : 48.0 kHz
  79. Frame rate                               : 31.250 FPS (1536 SPF)
  80. Compression mode                         : Lossy
  81. Stream size                              : 405 MiB (5%)
  82. Language                                 : Chinese
  83. Service kind                             : Complete Main
  84. Default                                  : No
  85. Forced                                   : No
  86. Text #1
  87. ID                                       : 5
  88. Format                                   : PGS
  89. Muxing mode                              : zlib
  90. Codec ID                                 : S_HDMV/PGS
  91. Codec ID/Info                            : Picture based subtitle format used on BDs/HD-DVDs
  92. Language                                 : English
  93. Default                                  : Yes
  94. Forced                                   : No
  95. Text #2
  96. ID                                       : 6
  97. Format                                   : PGS
  98. Muxing mode                              : zlib
  99. Codec ID                                 : S_HDMV/PGS
  100. Codec ID/Info                            : Picture based subtitle format used on BDs/HD-DVDs
  101. Language                                 : Chinese
  102. Default                                  : No
  103. Forced                                   : No
  104. Text #3
  105. ID                                       : 7
  106. Format                                   : PGS
  107. Muxing mode                              : zlib
  108. Codec ID                                 : S_HDMV/PGS
  109. Codec ID/Info                            : Picture based subtitle format used on BDs/HD-DVDs
  110. Language                                 : Chinese
  111. Default                                  : No
  112. Forced                                   : No
  113. Text #4
  114. ID                                       : 8
  115. Format                                   : PGS
  116. Muxing mode                              : zlib
  117. Codec ID                                 : S_HDMV/PGS
  118. Codec ID/Info                            : Picture based subtitle format used on BDs/HD-DVDs
  119. Language                                 : Chinese
  120. Default                                  : No
  121. Forced                                   : No
  122. Menu
  123. 00:00:00.000                             : en:Chapter 01
  124. 00:08:21.416                             : en:Chapter 02
  125. 00:15:56.747                             : en:Chapter 03
  126. 00:22:27.429                             : en:Chapter 04
  127. 00:30:01.090                             : en:Chapter 05
  128. 00:38:12.248                             : en:Chapter 06
  129. 00:45:06.370                             : en:Chapter 07
  130. 00:54:39.275                             : en:Chapter 08
  131. 01:00:30.209                             : en:Chapter 09
  132. 01:07:58.783                             : en:Chapter 10
  133. 01:18:17.567                             : en:Chapter 11
  134. 01:23:02.477                             : en:Chapter 12
  135. 01:31:34.530                             : en:Chapter 13
  136. 01:39:10.110                             : en:Chapter 14
  137. 01:47:22.519                             : en:Chapter 15
  138. 01:56:36.781                             : en:Chapter 16
  139. 02:02:10.489                             : en:Chapter 17
复制代码




TAGS 动作 冒险 犯罪 喜剧 /

磁力链:
  • magnet:?xt=urn:btih:77299818132CBED504DC872342448B4F022A4FB9
上传的附件:
BT9527电影天堂 1、BT9527电影天堂提供的BT文件均来源于互联网抓取,只供网友学习交流、技术提升使用。
2、我们遵守BitTorrent点对点协议原则,任何版权问题请联系原资源发布商,我们不处理任何版权纠纷,谢谢!如有争议请联系邮箱:BT9527#hotmail.com(#换成@)
3、如果您发现某页面或地址有错误,请联系站长邮箱BT9527#hotmail.com(#换成@),我们会尽快处理。您的热心是对BT9527电影天堂最大的支持。
4、本站建议去正规影院观看电影以支持电影行业发展。
最新回复 (0)

你可以在 登录 or 注册 后,对此帖发表评论!

返回