南极料理人[简繁字幕].The.Chef.of.South.Polar.2009.BluRay.1080p.x265.10bit-MiniHD 6.21GB

版主小s 6月前 569

南极料理人[简繁字幕].The.Chef.of.South.Polar.2009.BluRay.1080p.x265.10bit-MiniHD 6.21GB

◎译  名 南极料理人 / The Chef of South Polar / Nankyoku ryorinin
◎片  名 南極料理人
◎年  代 2009
◎产  地 日本
◎类  别 喜剧
◎语  言 日语
◎上映日期 2009-08-08(日本)
◎IMDb链接 https://www.imdb.com/title/tt1345728/
◎豆瓣评分 8.3/10 (79915人评价)
◎豆瓣链接 https://movie.douban.com/subject/3399559/
◎片  长 125分钟
◎导  演 冲田修一 Sh?ichi Okita (id:1316375)
◎编  剧 冲田修一 Sh?ichi Okita (id:1316375)
       西村淳 Jun Nishimura (id:1338341)
◎演  员 堺雅人 Masato Sakai (id:1028795)
       生濑胜久 Katsuhisa Namase (id:1029321)
       古关安广 Kitar? (id:1111204)
       丰原功补 Kosuke Toyohara (id:1028931)
       高良健吾 Kengo Kora (id:1042089)
       古馆宽治 Kanji Furutachi (id:1327503)
       黑田大辅 Daisuke Kuroda (id:1338342)
       小浜正宽 Masahiro Kohama (id:1338343)
       西田尚美 Naomi Nishida (id:1006093)
       小野花梨 Karin Ono (id:1315349)
       小出早织 Saori Koide (id:1312684)
       宇梶刚士 Takashi Ukaji (id:1024153)
       岛田久作 Ky?saku Shimada (id:1142576)
       内田慈 Chika Uchida (id:1340040)
       芦泽明子 Akiko Ashizawa (id:1277498)

◎简  介
  本片改编自曾任日本南极观测队厨师的西村淳根据自身经历创作的散文集《有趣的南极料理人》。本是海员厨师的西村淳(堺雅人 饰)被派往冰天雪地的南极圆顶富士基地为七名考察队员担任厨师,妻子(西田尚美 饰)只好独自抚养8岁的女儿和刚出生不久的幼子。在冰天雪地的南极寒地,吃,是考察队七位成员——冰河学助手川村泰士(高良健吾 饰)、气象学家平林雅彦(小浜正宽 饰)、通讯员西平亮(黑田大辅 饰)、医生福田正志(丰原功补 饰)、气象学家兼队长金田浩(古关安广 饰)、机师御子柴健(古馆宽治 饰)和冰河学家本山秀行(生濑胜久 饰)——枯燥生活中的最大乐趣。西村淳想尽办法烹饪各种各样的美味料理,而围绕着吃,八个寂寞的男人也演出无数令人忍俊不禁的生活趣事。                                    
                                本片获日本横滨电影节最佳男主角奖(堺雅人)。

  1. ##### MediaInfo ######
  2. General
  3. Unique ID                                : 181766928571434802084669556447780982570 (0x88BF097CFE61DDFFB262D8F97B1ECF2A)
  4. Complete name                            : The.Chef.of.South.Polar.2009.BluRay.1080p.x265.10bit-MiniHD.mkv
  5. Format                                   : Matroska
  6. Format version                           : Version 4
  7. File size                                : 6.21 GiB
  8. Duration                                 : 2 h 5 min
  9. Overall bit rate                         : 7 091 kb/s
  10. Encoded date                             : UTC 2017-11-27 13:30:04
  11. Writing application                      : mkvmerge v18.0.0 ('Apricity') 64-bit
  12. Writing library                          : libebml v1.3.5 + libmatroska v1.4.8
  13. Video
  14. ID                                       : 1
  15. Format                                   : HEVC
  16. Format/Info                              : High Efficiency Video Coding
  17. Format profile                           : Main 10@L4@Main
  18. Codec ID                                 : V_MPEGH/ISO/HEVC
  19. Duration                                 : 2 h 5 min
  20. Bit rate                                 : 6 747 kb/s
  21. Width                                    : 1 920 pixels
  22. Height                                   : 1 038 pixels
  23. Display aspect ratio                     : 1.85:1
  24. Frame rate mode                          : Constant
  25. Frame rate                               : 23.976 (24000/1001/53354) FPS
  26. Color space                              : YUV
  27. Chroma subsampling                       : 4:2:0
  28. Bit depth                                : 10 bits
  29. Bits/(Pixel*Frame)                       : 0.141
  30. Stream size                              : 5.91 GiB (95%)
  31. Writing library                          : x265 2.5+47-6a882a9300c2:[Windows][GCC 7.2.0][64 bit] 10bit
  32. Encoding settings                        : cpuid=533541173503 / frame-threads=3 / numa-pools=8 / wpp / no-pmode / no-pme / no-psnr / no-ssim / log-level=2 / csvfn=Y:\encode\00002.log / csv-log-level=0 / input-csp=1 / input-res=1920x1038 / interlace=0 / total-frames=180408 / level-idc=0 / high-tier=1 / uhd-bd=0 / ref=5 / no-allow-non-conformance / no-repeat-headers / annexb / no-aud / no-hrd / info / hash=0 / no-temporal-layers / no-open-gop / min-keyint=1 / keyint=360 / bframes=9 / b-adapt=2 / b-pyramid / bframe-bias=0 / rc-lookahead=60 / lookahead-slices=4 / NTMzNTQ=uuDQuD2mJt9fsCf / scenecut=40 / no-intra-refresh / ctu=32 / min-cu-size=8 / rect / no-amp / max-tu-size=16 / tu-inter-depth=2 / tu-intra-depth=2 / limit-tu=4 / rdoq-level=1 / dynamic-rd=0.00 / ssim-rd / signhide / no-tskip / nr-intra=0 / nr-inter=0 / no-constrained-intra / no-strong-intra-smoothing / max-merge=3 / limit-refs=2 / limit-modes / me=3 / subme=5 / merange=25 / temporal-mvp / weightp / weightb / no-analyze-src-pics / deblock=-1:-1 / no-sao / no-sao-non-deblock / rd=4 / no-early-skip / rskip / no-fast-intra / no-tskip-fast / no-cu-lossless / b-intra / no-splitrd-skip / rdpenalty=1 / psy-rd=0.00 / psy-rdoq=5.00 / no-rd-refine / analysis-reuse-mode=0 / no-lossless / cbqpoffs=-2 / crqpoffs=-2 / rc=crf / crf=19.0 / qcomp=0.65 / qpstep=4 / stats-write=0 / stats-read=0 / ipratio=1.40 / pbratio=1.30 / aq-mode=2 / aq-strength=0.80 / cutree / zone-count=0 / no-strict-cbr / qg-size=16 / no-rc-grain / qpmax=69 / qpmin=0 / no-const-vbv / sar=0 / overscan=0 / videoformat=5 / range=0 / colorprim=1 / transfer=2 / colormatrix=2 / chromaloc=0 / display-window=0 / max-cll=0,0 / min-luma=0 / max-luma=1023 / log2-max-poc-lsb=8 / vui-timing-info / vui-hrd-info / slices=1 / opt-qp-pps / opt-ref-list-length-pps / no-multi-pass-opt-rps / scenecut-bias=0.05 / no-opt-cu-delta-qp / no-aq-motion / no-hdr / no-hdr-opt / no-dhdr10-opt / analysis-reuse-level=5 / scale-factor=0 / refine-intra=0 / refine-inter=0 / refine-mv=0 / no-limit-sao / ctu-info=0 / no-lowpass-dct / refine-mv-type=0
  33. Default                                  : Yes
  34. Forced                                   : No
  35. Color range                              : Limited
  36. Color primaries                          : BT.709
  37. Audio
  38. ID                                       : 2
  39. Format                                   : AC-3
  40. Format/Info                              : Audio Coding 3
  41. Commercial name                          : Dolby Digital
  42. Codec ID                                 : A_AC3
  43. Duration                                 : 2 h 5 min
  44. Bit rate mode                            : Constant
  45. Bit rate                                 : 320 kb/s
  46. Channel(s)                               : 2 channels
  47. Channel layout                           : L R
  48. Sampling rate                            : 48.0 kHz
  49. Frame rate                               : 31.250 FPS (1536 SPF)
  50. Compression mode                         : Lossy
  51. Stream size                              : 287 MiB (5%)
  52. Title                                    : 日语
  53. Language                                 : Japanese
  54. Service kind                             : Complete Main
  55. Default                                  : Yes
  56. Forced                                   : No
  57. Text #1
  58. ID                                       : 3
  59. Format                                   : PGS
  60. Muxing mode                              : zlib
  61. Codec ID                                 : S_HDMV/PGS
  62. Codec ID/Info                            : Picture based subtitle format used on BDs/HD-DVDs
  63. Duration                                 : 2 h 3 min
  64. Bit rate                                 : 15.9 kb/s
  65. Count of elements                        : 2388
  66. Stream size                              : 14.1 MiB (0%)
  67. Title                                    : 简体中文
  68. Language                                 : Chinese
  69. Default                                  : Yes
  70. Forced                                   : No
  71. Text #2
  72. ID                                       : 4
  73. Format                                   : PGS
  74. Muxing mode                              : zlib
  75. Codec ID                                 : S_HDMV/PGS
  76. Codec ID/Info                            : Picture based subtitle format used on BDs/HD-DVDs
  77. Duration                                 : 2 h 3 min
  78. Bit rate                                 : 16.7 kb/s
  79. Count of elements                        : 2388
  80. Stream size                              : 14.7 MiB (0%)
  81. Title                                    : 繁体中文
  82. Language                                 : Chinese
  83. Default                                  : No
  84. Forced                                   : No
  85. Text #3
  86. ID                                       : 5
  87. Format                                   : PGS
  88. Muxing mode                              : zlib
  89. Codec ID                                 : S_HDMV/PGS
  90. Codec ID/Info                            : Picture based subtitle format used on BDs/HD-DVDs
  91. Duration                                 : 1 h 9 min
  92. Bit rate                                 : 23.9 kb/s
  93. Count of elements                        : 1438
  94. Stream size                              : 11.9 MiB (0%)
  95. Title                                    : 日文
  96. Language                                 : Japanese
  97. Default                                  : No
  98. Forced                                   : No
  99. Menu
  100. 00:00:00.000                             : en:Chapter 01
  101. 00:09:50.089                             : en:Chapter 02
  102. 00:24:18.039                             : en:Chapter 03
  103. 00:34:53.966                             : en:Chapter 04
  104. 00:44:21.325                             : en:Chapter 05
  105. 01:01:02.575                             : en:Chapter 06
  106. 01:07:20.119                             : en:Chapter 07
  107. 01:16:49.730                             : en:Chapter 08
  108. 01:28:13.413                             : en:Chapter 09
  109. 01:35:27.263                             : en:Chapter 10
  110. 01:48:09.357                             : en:Chapter 11
  111. 01:56:18.846                             : en:Chapter 12
  112. 01:59:44.594                             : en:Chapter 13
  113. 02:05:24.517                             : en:Chapter 14
复制代码




TAGS 喜剧

磁力链:
  • magnet:?xt=urn:btih:A6C679FB4FE9C45E5BDA1D4D3820444C86587652
上传的附件:
BT9527电影天堂 1、BT9527电影天堂提供的BT文件均来源于互联网抓取,只供网友学习交流、技术提升使用。
2、我们遵守BitTorrent点对点协议原则,任何版权问题请联系原资源发布商,我们不处理任何版权纠纷,谢谢!如有争议请联系邮箱:BT9527#hotmail.com(#换成@)
3、如果您发现某页面或地址有错误,请联系站长邮箱BT9527#hotmail.com(#换成@),我们会尽快处理。您的热心是对BT9527电影天堂最大的支持。
4、本站建议去正规影院观看电影以支持电影行业发展。
最新回复 (0)

你可以在 登录 or 注册 后,对此帖发表评论!

返回
发新帖