坦克女郎[中文字幕].Tank.Girl.1995.1080p.BluRay.DTS.x265-10bit-ENTHD 6.84GB

版主小s 6月前 607

◎译 名 坦克女郎

◎片 名 Tank Girl

◎年 代 1995

◎产 地 美国

◎类 别 喜剧 / 动作 / 科幻

◎语 言 英语

◎上映日期 1995-03-31

◎IMDb链接 https://www.imdb.com/title/tt0114614/

◎豆瓣评分 6.9/10 (883人评价)

◎豆瓣链接 https://movie.douban.com/subject/1299689/

◎片 长 104 分钟

◎导 演 瑞秋·塔拉蕾 Rachel Talalay (id:1276304)

◎编 剧 杰米·休莱特 Jamie Hewlett (id:1001002)

Alan Martin Alan Martin (id:1193927)

◎演 员 罗莉·佩蒂 Lori Petty (id:1027827)

娜奥米·沃茨 Naomi Watts (id:1016675)

马尔科姆·麦克道威尔 Malcolm McDowell (id:1019019)

艾斯-T Ice-T (id:1054631)

唐·哈维 Don Harvey (id:1345203)

杰夫·科伯 Jeff Kober (id:1104747)

雷格·E·凯蒂 Reg E. Cathey (id:1077481)

斯科特·科菲 Scott Coffey (id:1045106)

安·库萨克 Ann Cusack (id:1017984)

布莱恩·维莫尔 Brian Wimmer (id:1163720)

伊基·波普 Iggy Pop (id:1045097)

Dawn Robinson Dawn Robinson (id:1147560)

Billy L. Sullivan Billy L. Sullivan (id:1150489)

吴汉章 James Hong (id:1031824)

道格·琼斯 Doug Jones (id:1019031)

布里克斯顿·卡恩斯 Brixton Karnes (id:1111781)

理查德·希夫 Richard Schiff (id:1019089)

尚恩·马翰 Shane Mahan (id:1290741)

Aurorah Allain Aurorah Allain (id:1056344)

安妮·弗莱彻 Anne Fletcher (id:1045129)

Kimberly Wolfe Kimberly Wolfe (id:1167649)

弗兰克·维尔克 Frank Welker (id:1031825)

Robert 'Roby' Hutchinson Robert 'Roby' Hutchinson (id:1034848)

Dave Lawrence (id:1271164)

安·麦格纽森 Ann Magnuson (id:1056081)

Brian Daniel Patterson Brian Daniel Patterson (id:1187346)

阿伦·沃纳 Aron Warner (id:1300440)

潘·丹萨姆 Pen Densham (id:1282251)

理查德·巴顿·刘易斯 Richard Barton Lewis (id:1289977)

格里莫·瑞维尔 Graeme Revell (id:1028103)

Pam Dixon Pam Dixon (id:1282494)

凯瑟琳·哈德威克 Catherine Hardwicke (id:1027268)

辛迪·卡尔 Cindy Carr (id:1280140)

Jim Dultz Jim Dultz (id:1282797)

Charles Dwight Lee Charles Dwight Lee (id:1003000)

艾丽安·飞利浦 Arianne Phillips (id:1294449)

托尼·加德纳 Tony Gardner (id:1284564)

Brian Penikas Brian Penikas (id:1294253)

Loretta James-Demasi Loretta James-Demasi (id:1287577)

Rolf John Keppler Rolf John Keppler (id:1288427)

勒内·达希尔·克比 René Dashiell Kerby (id:1281837)

迈克·史密斯森 Mike Smithson (id:1297961)

Douglas A. Raine Douglas A. Raine (id:1015035)

Bob Wagner Bob Wagner (id:1161649)

Pat O'Neill Pat O'Neill (id:1293432)

保罗·麦吉 Paul McGhee (id:1118678)

理查德·E·霍兰德尔 Richard E. Hollander (id:1286808)

罗伯特·斯科塔克 Robert Skotak (id:1297751)

Larry Arpin Larry Arpin (id:1056369)

杰伊·马克·约翰逊 Jay Mark Johnson (id:1043656)

约翰·T·范弗利特 John T. Van Vliet (id:1299892)

伊恩·奥康纳 Ian O'Connor (id:1126899)

Rick Rische Rick Rische (id:1148188)

Gregory L. McMurry Gregory L. McMurry (id:1001651)

丹尼斯·斯科塔克 Dennis Skotak (id:1008344)

Laura Buff Laura Buff (id:1279586)

鲍勃·班尼特 Bob Bennett (id:1278364)

Rhonda C. Gunner Rhonda C. Gunner (id:1285640)

◎简 介

2033年的未来,由于彗星的撞击,地球成为沙漠废土,整个星球已经11年没有下过一滴雨。水威力公司控制仅存的水资源号令天下,不从者要被榨干水分而死。坦克妹蕾贝卡的反抗军朋友被水威力公司悉数杀害,坦克妹被关进集中营。为了给朋友报仇,坦克妹与飞机妹联手越狱,夺走一辆坦克和一架飞机,率领一群变异基因袋鼠人展开绝地反攻,打垮水威力公司拯救地球。

根据英国流行cult漫画改编,一部古灵精怪的后启示录/反乌托邦朋克电影。

  1. ##### MediaInfo ######

  2. General

  3. Unique ID : 199717304726148073910839940414886522185 (0x9640275CB68EDA5403FD5E1DF2E62D49)

  4. Complete name : Tank.Girl.1995.1080p.BluRay.DTS.x265-10bit-ENTHD.mkv

  5. Format : Matroska

  6. Format version : Version 4

  7. File size : 6.84 GiB

  8. Duration : 1 h 44 min

  9. Overall bit rate : 9 401 kb/s

  10. Movie name : Tank Girl 1995 1080p BluRay DTS x265-10bit-HDS

  11. Encoded date : UTC 2022-05-28 06:13:01

  12. Writing application : mkvmerge v67.0.0 ('Under Stars') 64-bit

  13. Writing library : libebml v1.4.2 + libmatroska v1.6.4

  14. Video

  15. ID : 1

  16. Format : HEVC

  17. Format/Info : High Efficiency Video Coding

  18. Format profile : Main 10@L5.1@High

  19. Codec ID : V_MPEGH/ISO/HEVC

  20. Duration : 1 h 44 min

  21. Bit rate : 7 865 kb/s

  22. Width : 1 920 pixels

  23. Height : 816 pixels

  24. Display aspect ratio : 2.35:1

  25. Frame rate mode : Constant

  26. Frame rate : 23.976 (24000/1001/53354) FPS

  27. Color space : YUV

  28. Chroma subsampling : 4:2:0

  29. Bit depth : 10 bits

  30. Bits/(Pixel*Frame) : 0.209

  31. Stream size : 5.72 GiB (84%)

  32. Title : @HDSky

  33. Writing library : x265 - H.265/HEVC codec

  34. Default : Yes

  35. Forced : No

  36. Audio

  37. ID : 2

  38. Format : DTS

  39. Format/Info : Digital Theater Systems

  40. Codec ID : A_DTS

  41. Duration : 1 h 44 min

  42. Bit rate mode : Constant

  43. Bit rate : 1 509 kb/s

  44. Channel(s) : 6 channels

  45. Channel layout : C L R Ls Rs LFE

  46. Sampling rate : 48.0 kHz

  47. Frame rate : 93.750 FPS (512 SPF)

  48. Bit depth : 24 bits

  49. Compression mode : Lossy

  50. Stream size : 1.10 GiB (16%)

  51. Title : English

  52. Language : English

  53. Default : Yes

  54. Forced : No

  55. Text #1

  56. ID : 3

  57. Format : PGS

  58. Muxing mode : zlib

  59. Codec ID : S_HDMV/PGS

  60. Codec ID/Info : Picture based subtitle format used on BDs/HD-DVDs

  61. Duration : 1 h 35 min

  62. Bit rate : 22.5 kb/s

  63. Count of elements : 1766

  64. Stream size : 15.4 MiB (0%)

  65. Title : CHS

  66. Language : Chinese

  67. Default : Yes

  68. Forced : No

  69. Text #2

  70. ID : 4

  71. Format : PGS

  72. Muxing mode : zlib

  73. Codec ID : S_HDMV/PGS

  74. Codec ID/Info : Picture based subtitle format used on BDs/HD-DVDs

  75. Duration : 1 h 35 min

  76. Bit rate : 23.4 kb/s

  77. Count of elements : 1766

  78. Stream size : 16.0 MiB (0%)

  79. Title : CHT

  80. Language : Chinese

  81. Default : Yes

  82. Forced : No

  83. Menu

  84. 00:00:00.000 : en:第 01 章

  85. 00:05:08.642 : en:第 02 章

  86. 00:07:48.468 : en:第 03 章

  87. 00:12:21.783 : en:第 04 章

  88. 00:19:11.067 : en:第 05 章

  89. 00:30:31.913 : en:第 06 章

  90. 00:36:53.837 : en:第 07 章

  91. 00:43:17.220 : en:第 08 章

  92. 00:46:38.337 : en:第 09 章

  93. 00:50:24.647 : en:第 10 章

  94. 00:53:16.485 : en:第 11 章

  95. 00:57:17.893 : en:第 12 章

  96. 01:07:05.563 : en:第 13 章

  97. 01:19:04.073 : en:第 14 章

  98. 01:33:44.786 : en:第 15 章

  99. 01:38:46.587 : en:第 16 章


复制代码


TAGS 动作 科幻 喜剧 /

磁力链:
  • magnet:?xt=urn:btih:4C998B173648F3C0863B4AA07582F2E8204E20A8
上传的附件:
BT9527电影天堂 1、BT9527电影天堂提供的BT文件均来源于互联网抓取,只供网友学习交流、技术提升使用。
2、我们遵守BitTorrent点对点协议原则,任何版权问题请联系原资源发布商,我们不处理任何版权纠纷,谢谢!如有争议请联系邮箱:BT9527#hotmail.com(#换成@)
3、如果您发现某页面或地址有错误,请联系站长邮箱BT9527#hotmail.com(#换成@),我们会尽快处理。您的热心是对BT9527电影天堂最大的支持。
4、本站建议去正规影院观看电影以支持电影行业发展。
最新回复 (0)

你可以在 登录 or 注册 后,对此帖发表评论!

返回
发新帖