兄弟同体[国语配音/中文字幕].Siam.2022.2160p.WEB-DL.H265.AAC-HDBWEB 1.19GB

版主小s 6月前 320

◎译 名 兄弟同体 / Siam

◎年 代 2022

◎产 地 中国大陆

◎类 别 爱情 / 奇幻

◎语 言 汉语普通话

◎上映日期 2022-05-24(中国大陆)

◎IMDb链接 https://www.imdb.com/title//

◎豆瓣链接 https://movie.douban.com/subject/27113809/

◎片 长 91分钟

◎导 演 沈婳 Shen Hua (id:1365530)

◎演 员 李九霄 Jiuxiao Li (id:1330992)

尤靖茹 Jingru You (id:1343521)

◎简 介

影片改编自同名人气漫画《兄弟同体》。讲述了双胞胎兄弟“白虎”和“泰山”在经历了一场车祸后共用一个身体,在遇到同校女生方筐筐后,兄弟之间生活的默契与共存的规则被慢慢打破,同时对女主产生的爱恋导致一系列出人意料的事情发生的故事。

  1. ##### MediaInfo ######

  2. General

  3. Complete name : 兄弟同体.Siam.2022.2160p.WEB-DL.H265.AAC-HDBWEB.mp4

  4. Format : MPEG-4

  5. Format profile : Base Media

  6. Codec ID : isom (isom/iso2/mp41)

  7. File size : 1.19 GiB

  8. Duration : 1 h 31 min

  9. Overall bit rate mode : Variable

  10. Overall bit rate : 1 858 kb/s

  11. Writing application : Lavf58.17.103

  12. Video

  13. ID : 1

  14. Format : HEVC

  15. Format/Info : High Efficiency Video Coding

  16. Format profile : Main@L5@Main

  17. Codec ID : hev1

  18. Codec ID/Info : High Efficiency Video Coding

  19. Duration : 1 h 31 min

  20. Bit rate : 1 726 kb/s

  21. Width : 3 840 pixels

  22. Height : 1 628 pixels

  23. Display aspect ratio : 2.35:1

  24. Frame rate mode : Variable

  25. Frame rate : 24.000 FPS

  26. Minimum frame rate : 23.994 FPS

  27. Maximum frame rate : 24.006 FPS

  28. Color space : YUV

  29. Chroma subsampling : 4:2:0

  30. Bit depth : 8 bits

  31. Bits/(Pixel*Frame) : 0.012

  32. Stream size : 1.10 GiB (93%)

  33. Color range : Limited

  34. Color primaries : BT.709

  35. Transfer characteristics : BT.709

  36. Matrix coefficients : BT.709

  37. Codec configuration box : hvcC

  38. Audio

  39. ID : 2

  40. Format : AAC LC

  41. Format/Info : Advanced Audio Codec Low Complexity

  42. Codec ID : mp4a-40-2

  43. Duration : 1 h 31 min

  44. Bit rate mode : Variable

  45. Bit rate : 125 kb/s

  46. Maximum bit rate : 131 kb/s

  47. Channel(s) : 2 channels

  48. Channel layout : L R

  49. Sampling rate : 48.0 kHz

  50. Frame rate : 46.875 FPS (1024 SPF)

  51. Compression mode : Lossy

  52. Stream size : 81.9 MiB (7%)

  53. Default : Yes

  54. Alternate group : 1


复制代码


TAGS 奇幻 爱情 /

磁力链:
  • magnet:?xt=urn:btih:9CE7349467E8C78EB6EECE4AEE937CDEA08F13D1
上传的附件:
BT9527电影天堂 1、BT9527电影天堂提供的BT文件均来源于互联网抓取,只供网友学习交流、技术提升使用。
2、我们遵守BitTorrent点对点协议原则,任何版权问题请联系原资源发布商,我们不处理任何版权纠纷,谢谢!如有争议请联系邮箱:BT9527#hotmail.com(#换成@)
3、如果您发现某页面或地址有错误,请联系站长邮箱BT9527#hotmail.com(#换成@),我们会尽快处理。您的热心是对BT9527电影天堂最大的支持。
4、本站建议去正规影院观看电影以支持电影行业发展。
最新回复 (0)

你可以在 登录 or 注册 后,对此帖发表评论!

返回
发新帖