浮华之惑[中文字幕].Kedibone.2020.1080p.NF.WEBRip.DDP2.0.x264-SMURF 1.92GB

版主小s 6月前 412




◎译  名 浮华之惑
◎片  名 Kedibone
◎年  代 2020
◎产  地 南非
◎类  别 剧情
◎语  言 英语
◎上映日期 2020-09-11(南非)
◎IMDb链接 https://www.imdb.com/title/tt14740326/
◎豆瓣链接 https://movie.douban.com/subject/35916947/
◎片  长 100分钟

◎简  介
  An exotically beautiful Sotho girl, Kedibone Manamela, chooses to live her youth on the fast lane. Veiled from her loyal childhood boyfriend's eyes, she bounces between being a good girl in the township and the 'it' girl on the high end of Johannesburg streets. A dark threat looms over the day when the news of Kedibone's escapades reaches the young man.by:<a href="https://www.douban.com/link2/?url=http%3A%2F%2Fwww.yuanji.cc&amp;link2key=35c37ccc72" target="_blank" rel="nofollow">www.yuanji.cc</a>

  1. Video
  2. ID                                       : 1
  3. Format                                   : AVC
  4. Format/Info                              : Advanced Video Codec
  5. Format profile                           : High@L4
  6. Format settings                          : CABAC / 4 Ref Frames
  7. Format settings, CABAC                   : Yes
  8. Format settings, Reference frames        : 4 frames
  9. Codec ID                                 : V_MPEG4/ISO/AVC
  10. Duration                                 : 1 h 34 min
  11. Bit rate mode                            : Variable
  12. Bit rate                                 : 2 783 kb/s
  13. Maximum bit rate                         : 20.0 Mb/s
  14. Width                                    : 1 920 pixels
  15. Height                                   : 1 080 pixels
  16. Display aspect ratio                     : 16:9
  17. Frame rate mode                          : Constant
  18. Frame rate                               : 24.000 FPS
  19. Color space                              : YUV
  20. Chroma subsampling                       : 4:2:0
  21. Bit depth                                : 8 bits
  22. Scan type                                : Progressive
  23. Bits/(Pixel*Frame)                       : 0.056
  24. Stream size                              : 1.84 GiB (95%)
  25. Writing library                          : x264 core 148 r2727 7d026e8
  26. Encoding settings                        : cabac=1 / ref=4 / deblock=1:0:0 / analyse=0x3:0x111 / me=umh / subme=10 / psy=1 / psy_rd=1.00:0.00 / mixed_ref=1 / me_range=120 / chroma_me=1 / trellis=2 / 8x8dct=1 / cqm=0 / deadzone=21,11 / fast_pskip=1 / chroma_qp_offset=-2 / threads=8 / lookahead_threads=2 / sliced_threads=0 / nr=0 / decimate=1 / interlaced=0 / NTMzNTQ= / bluray_compat=0 / stitchable=1 / constrained_intra=0 / bframes=16 / b_pyramid=2 / b_adapt=2 / b_bias=0 / direct=3 / weightb=1 / open_gop=0 / weightp=2 / keyint=240 / keyint_min=121 / scenecut=0 / intra_refresh=0 / rc_lookahead=240 / rc=crf / mbtree=1 / crf=16.0 / qcomp=0.50 / qpmin=6 / qpmax=51 / qpstep=4 / vbv_maxrate=20000 / vbv_bufsize=25000 / crf_max=0.0 / nal_hrd=vbr / filler=0 / NTMzNTQ=LmsMAP37EqsCpk / ip_ratio=1.40 / aq=1:0.80
  27. Default                                  : Yes
  28. Forced                                   : No

  29. Audio
  30. ID                                       : 2
  31. Format                                   : E-AC-3
  32. Format/Info                              : Enhanced AC-3
  33. Commercial name                          : Dolby Digital Plus
  34. Codec ID                                 : A_EAC3
  35. Duration                                 : 1 h 34 min
  36. Bit rate mode                            : Constant
  37. Bit rate                                 : 128 kb/s
  38. Channel(s)                               : 2 channels
  39. Channel layout                           : L R
  40. Sampling rate                            : 48.0 kHz
  41. Frame rate                               : 31.250 FPS (1536 SPF)
  42. Compression mode                         : Lossy
  43. Stream size                              : 86.4 MiB (4%)
  44. Language                                 : English
  45. Service kind                             : Complete Main
  46. Default                                  : Yes
  47. Forced                                   : No

  48. Text #1
  49. ID                                       : 3
  50. Format                                   : UTF-8
  51. Codec ID                                 : S_TEXT/UTF8
  52. Codec ID/Info                            : UTF-8 Plain Text
  53. Duration                                 : 1 h 29 min
  54. Bit rate                                 : 33 b/s
  55. Count of elements                        : 730
  56. Stream size                              : 21.6 KiB (0%)
  57. Title                                    : Forced
  58. Language                                 : English
  59. Default                                  : Yes
  60. Forced                                   : Yes

  61. Text #2
  62. ID                                       : 4
  63. Format                                   : UTF-8
  64. Codec ID                                 : S_TEXT/UTF8
  65. Codec ID/Info                            : UTF-8 Plain Text
  66. Duration                                 : 1 h 30 min
  67. Bit rate                                 : 54 b/s
  68. Count of elements                        : 1428
  69. Stream size                              : 36.4 KiB (0%)
  70. Language                                 : English
  71. Default                                  : No
  72. Forced                                   : No

  73. Text #3
  74. ID                                       : 5
  75. Format                                   : UTF-8
  76. Codec ID                                 : S_TEXT/UTF8
  77. Codec ID/Info                            : UTF-8 Plain Text
  78. Duration                                 : 1 h 30 min
  79. Bit rate                                 : 65 b/s
  80. Count of elements                        : 1642
  81. Stream size                              : 43.4 KiB (0%)
  82. Title                                    : SDH
  83. Language                                 : English
  84. Default                                  : No
  85. Forced                                   : No

  86. Text #4
  87. ID                                       : 6
  88. Format                                   : UTF-8
  89. Codec ID                                 : S_TEXT/UTF8
  90. Codec ID/Info                            : UTF-8 Plain Text
  91. Duration                                 : 1 h 30 min
  92. Bit rate                                 : 84 b/s
  93. Count of elements                        : 1288
  94. Stream size                              : 56.4 KiB (0%)
  95. Language                                 : Arabic
  96. Default                                  : No
  97. Forced                                   : No

  98. Text #5
  99. ID                                       : 7
  100. Format                                   : UTF-8
  101. Codec ID                                 : S_TEXT/UTF8
  102. Codec ID/Info                            : UTF-8 Plain Text
  103. Duration                                 : 1 h 34 min
  104. Bit rate                                 : 44 b/s
  105. Count of elements                        : 1281
  106. Stream size                              : 30.7 KiB (0%)
  107. Language                                 : Czech
  108. Default                                  : No
  109. Forced                                   : No

  110. Text #6
  111. ID                                       : 8
  112. Format                                   : UTF-8
  113. Codec ID                                 : S_TEXT/UTF8
  114. Codec ID/Info                            : UTF-8 Plain Text
  115. Duration                                 : 1 h 34 min
  116. Bit rate                                 : 44 b/s
  117. Count of elements                        : 1151
  118. Stream size                              : 31.0 KiB (0%)
  119. Language                                 : Danish
  120. Default                                  : No
  121. Forced                                   : No

  122. Text #7
  123. ID                                       : 9
  124. Format                                   : UTF-8
  125. Codec ID                                 : S_TEXT/UTF8
  126. Codec ID/Info                            : UTF-8 Plain Text
  127. Duration                                 : 1 h 34 min
  128. Bit rate                                 : 51 b/s
  129. Count of elements                        : 1178
  130. Stream size                              : 35.3 KiB (0%)
  131. Language                                 : German
  132. Default                                  : No
  133. Forced                                   : No

  134. Text #8
  135. ID                                       : 10
  136. Format                                   : UTF-8
  137. Codec ID                                 : S_TEXT/UTF8
  138. Codec ID/Info                            : UTF-8 Plain Text
  139. Duration                                 : 1 h 34 min
  140. Bit rate                                 : 80 b/s
  141. Count of elements                        : 1236
  142. Stream size                              : 55.5 KiB (0%)
  143. Language                                 : Greek
  144. Default                                  : No
  145. Forced                                   : No

  146. Text #9
  147. ID                                       : 11
  148. Format                                   : UTF-8
  149. Codec ID                                 : S_TEXT/UTF8
  150. Codec ID/Info                            : UTF-8 Plain Text
  151. Duration                                 : 1 h 34 min
  152. Bit rate                                 : 49 b/s
  153. Count of elements                        : 1275
  154. Stream size                              : 33.9 KiB (0%)
  155. Title                                    : Latin American
  156. Language                                 : Spanish
  157. Default                                  : No
  158. Forced                                   : No

  159. Text #10
  160. ID                                       : 12
  161. Format                                   : UTF-8
  162. Codec ID                                 : S_TEXT/UTF8
  163. Codec ID/Info                            : UTF-8 Plain Text
  164. Duration                                 : 1 h 34 min
  165. Bit rate                                 : 45 b/s
  166. Count of elements                        : 1232
  167. Stream size                              : 31.6 KiB (0%)
  168. Language                                 : Spanish
  169. Default                                  : No
  170. Forced                                   : No

  171. Text #11
  172. ID                                       : 13
  173. Format                                   : UTF-8
  174. Codec ID                                 : S_TEXT/UTF8
  175. Codec ID/Info                            : UTF-8 Plain Text
  176. Duration                                 : 1 h 34 min
  177. Bit rate                                 : 45 b/s
  178. Count of elements                        : 1131
  179. Stream size                              : 31.7 KiB (0%)
  180. Language                                 : Finnish
  181. Default                                  : No
  182. Forced                                   : No

  183. Text #12
  184. ID                                       : 14
  185. Format                                   : UTF-8
  186. Codec ID                                 : S_TEXT/UTF8
  187. Codec ID/Info                            : UTF-8 Plain Text
  188. Duration                                 : 1 h 33 min
  189. Bit rate                                 : 45 b/s
  190. Count of elements                        : 1222
  191. Stream size                              : 31.2 KiB (0%)
  192. Language                                 : fil
  193. Default                                  : No
  194. Forced                                   : No

  195. Text #13
  196. ID                                       : 15
  197. Format                                   : UTF-8
  198. Codec ID                                 : S_TEXT/UTF8
  199. Codec ID/Info                            : UTF-8 Plain Text
  200. Duration                                 : 1 h 34 min
  201. Bit rate                                 : 45 b/s
  202. Count of elements                        : 1195
  203. Stream size                              : 31.5 KiB (0%)
  204. Language                                 : French
  205. Default                                  : No
  206. Forced                                   : No

  207. Text #14
  208. ID                                       : 16
  209. Format                                   : UTF-8
  210. Codec ID                                 : S_TEXT/UTF8
  211. Codec ID/Info                            : UTF-8 Plain Text
  212. Duration                                 : 1 h 34 min
  213. Bit rate                                 : 79 b/s
  214. Count of elements                        : 1215
  215. Stream size                              : 55.0 KiB (0%)
  216. Language                                 : Hebrew
  217. Default                                  : No
  218. Forced                                   : No

  219. Text #15
  220. ID                                       : 17
  221. Format                                   : UTF-8
  222. Codec ID                                 : S_TEXT/UTF8
  223. Codec ID/Info                            : UTF-8 Plain Text
  224. Duration                                 : 1 h 34 min
  225. Bit rate                                 : 43 b/s
  226. Count of elements                        : 1269
  227. Stream size                              : 30.0 KiB (0%)
  228. Language                                 : Croatian
  229. Default                                  : No
  230. Forced                                   : No

  231. Text #16
  232. ID                                       : 18
  233. Format                                   : UTF-8
  234. Codec ID                                 : S_TEXT/UTF8
  235. Codec ID/Info                            : UTF-8 Plain Text
  236. Duration                                 : 1 h 34 min
  237. Bit rate                                 : 44 b/s
  238. Count of elements                        : 1253
  239. Stream size                              : 31.0 KiB (0%)
  240. Language                                 : Hungarian
  241. Default                                  : No
  242. Forced                                   : No

  243. Text #17
  244. ID                                       : 19
  245. Format                                   : UTF-8
  246. Codec ID                                 : S_TEXT/UTF8
  247. Codec ID/Info                            : UTF-8 Plain Text
  248. Duration                                 : 1 h 34 min
  249. Bit rate                                 : 47 b/s
  250. Count of elements                        : 1269
  251. Stream size                              : 32.7 KiB (0%)
  252. Language                                 : Indonesian
  253. Default                                  : No
  254. Forced                                   : No

  255. Text #18
  256. ID                                       : 20
  257. Format                                   : UTF-8
  258. Codec ID                                 : S_TEXT/UTF8
  259. Codec ID/Info                            : UTF-8 Plain Text
  260. Duration                                 : 1 h 34 min
  261. Bit rate                                 : 45 b/s
  262. Count of elements                        : 1245
  263. Stream size                              : 31.1 KiB (0%)
  264. Language                                 : Italian
  265. Default                                  : No
  266. Forced                                   : No

  267. Text #19
  268. ID                                       : 21
  269. Format                                   : UTF-8
  270. Codec ID                                 : S_TEXT/UTF8
  271. Codec ID/Info                            : UTF-8 Plain Text
  272. Duration                                 : 1 h 30 min
  273. Bit rate                                 : 37 b/s
  274. Count of elements                        : 1136
  275. Stream size                              : 24.8 KiB (0%)
  276. Language                                 : Japanese
  277. Default                                  : No
  278. Forced                                   : No

  279. Text #20
  280. ID                                       : 22
  281. Format                                   : UTF-8
  282. Codec ID                                 : S_TEXT/UTF8
  283. Codec ID/Info                            : UTF-8 Plain Text
  284. Duration                                 : 1 h 34 min
  285. Bit rate                                 : 47 b/s
  286. Count of elements                        : 1267
  287. Stream size                              : 32.6 KiB (0%)
  288. Language                                 : Malay
  289. Default                                  : No
  290. Forced                                   : No

  291. Text #21
  292. ID                                       : 23
  293. Format                                   : UTF-8
  294. Codec ID                                 : S_TEXT/UTF8
  295. Codec ID/Info                            : UTF-8 Plain Text
  296. Duration                                 : 1 h 34 min
  297. Bit rate                                 : 43 b/s
  298. Count of elements                        : 1139
  299. Stream size                              : 29.8 KiB (0%)
  300. Language                                 : Norwegian Bokmal
  301. Default                                  : No
  302. Forced                                   : No

  303. Text #22
  304. ID                                       : 24
  305. Format                                   : UTF-8
  306. Codec ID                                 : S_TEXT/UTF8
  307. Codec ID/Info                            : UTF-8 Plain Text
  308. Duration                                 : 1 h 34 min
  309. Bit rate                                 : 45 b/s
  310. Count of elements                        : 1150
  311. Stream size                              : 31.2 KiB (0%)
  312. Language                                 : Dutch
  313. Default                                  : No
  314. Forced                                   : No

  315. Text #23
  316. ID                                       : 25
  317. Format                                   : UTF-8
  318. Codec ID                                 : S_TEXT/UTF8
  319. Codec ID/Info                            : UTF-8 Plain Text
  320. Duration                                 : 1 h 34 min
  321. Bit rate                                 : 44 b/s
  322. Count of elements                        : 1224
  323. Stream size                              : 30.6 KiB (0%)
  324. Language                                 : Polish
  325. Default                                  : No
  326. Forced                                   : No

  327. Text #24
  328. ID                                       : 26
  329. Format                                   : UTF-8
  330. Codec ID                                 : S_TEXT/UTF8
  331. Codec ID/Info                            : UTF-8 Plain Text
  332. Duration                                 : 1 h 30 min
  333. Bit rate                                 : 48 b/s
  334. Count of elements                        : 1266
  335. Stream size                              : 32.1 KiB (0%)
  336. Title                                    : Brazilian
  337. Language                                 : Portuguese
  338. Default                                  : No
  339. Forced                                   : No

  340. Text #25
  341. ID                                       : 27
  342. Format                                   : UTF-8
  343. Codec ID                                 : S_TEXT/UTF8
  344. Codec ID/Info                            : UTF-8 Plain Text
  345. Duration                                 : 1 h 34 min
  346. Bit rate                                 : 47 b/s
  347. Count of elements                        : 1208
  348. Stream size                              : 32.5 KiB (0%)
  349. Language                                 : Portuguese
  350. Default                                  : No
  351. Forced                                   : No

  352. Text #26
  353. ID                                       : 28
  354. Format                                   : UTF-8
  355. Codec ID                                 : S_TEXT/UTF8
  356. Codec ID/Info                            : UTF-8 Plain Text
  357. Duration                                 : 1 h 34 min
  358. Bit rate                                 : 45 b/s
  359. Count of elements                        : 1271
  360. Stream size                              : 31.3 KiB (0%)
  361. Language                                 : Romanian
  362. Default                                  : No
  363. Forced                                   : No

  364. Text #27
  365. ID                                       : 29
  366. Format                                   : UTF-8
  367. Codec ID                                 : S_TEXT/UTF8
  368. Codec ID/Info                            : UTF-8 Plain Text
  369. Duration                                 : 1 h 34 min
  370. Bit rate                                 : 81 b/s
  371. Count of elements                        : 1271
  372. Stream size                              : 56.1 KiB (0%)
  373. Language                                 : Russian
  374. Default                                  : No
  375. Forced                                   : No

  376. Text #28
  377. ID                                       : 30
  378. Format                                   : UTF-8
  379. Codec ID                                 : S_TEXT/UTF8
  380. Codec ID/Info                            : UTF-8 Plain Text
  381. Duration                                 : 1 h 34 min
  382. Bit rate                                 : 47 b/s
  383. Count of elements                        : 1047
  384. Stream size                              : 32.9 KiB (0%)
  385. Language                                 : Swedish
  386. Default                                  : No
  387. Forced                                   : No

  388. Text #29
  389. ID                                       : 31
  390. Format                                   : UTF-8
  391. Codec ID                                 : S_TEXT/UTF8
  392. Codec ID/Info                            : UTF-8 Plain Text
  393. Duration                                 : 1 h 34 min
  394. Bit rate                                 : 116 b/s
  395. Count of elements                        : 1391
  396. Stream size                              : 80.2 KiB (0%)
  397. Language                                 : Thai
  398. Default                                  : No
  399. Forced                                   : No

  400. Text #30
  401. ID                                       : 32
  402. Format                                   : UTF-8
  403. Codec ID                                 : S_TEXT/UTF8
  404. Codec ID/Info                            : UTF-8 Plain Text
  405. Duration                                 : 1 h 34 min
  406. Bit rate                                 : 48 b/s
  407. Count of elements                        : 1283
  408. Stream size                              : 33.1 KiB (0%)
  409. Language                                 : Turkish
  410. Default                                  : No
  411. Forced                                   : No

  412. Text #31
  413. ID                                       : 33
  414. Format                                   : UTF-8
  415. Codec ID                                 : S_TEXT/UTF8
  416. Codec ID/Info                            : UTF-8 Plain Text
  417. Duration                                 : 1 h 34 min
  418. Bit rate                                 : 76 b/s
  419. Count of elements                        : 1251
  420. Stream size                              : 52.7 KiB (0%)
  421. Language                                 : Ukrainian
  422. Default                                  : No
  423. Forced                                   : No

  424. Text #32
  425. ID                                       : 34
  426. Format                                   : UTF-8
  427. Codec ID                                 : S_TEXT/UTF8
  428. Codec ID/Info                            : UTF-8 Plain Text
  429. Duration                                 : 1 h 30 min
  430. Bit rate                                 : 63 b/s
  431. Count of elements                        : 1289
  432. Stream size                              : 41.9 KiB (0%)
  433. Language                                 : Vietnamese
  434. Default                                  : No
  435. Forced                                   : No

  436. Text #33
  437. ID                                       : 35
  438. Format                                   : UTF-8
  439. Codec ID                                 : S_TEXT/UTF8
  440. Codec ID/Info                            : UTF-8 Plain Text
  441. Duration                                 : 1 h 34 min
  442. Bit rate                                 : 48 b/s
  443. Count of elements                        : 1296
  444. Stream size                              : 33.7 KiB (0%)
  445. Title                                    : Simplified
  446. Language                                 : Chinese
  447. Default                                  : No
  448. Forced                                   : No

  449. Text #34
  450. ID                                       : 36
  451. Format                                   : UTF-8
  452. Codec ID                                 : S_TEXT/UTF8
  453. Codec ID/Info                            : UTF-8 Plain Text
  454. Duration                                 : 1 h 34 min
  455. Bit rate                                 : 43 b/s
  456. Count of elements                        : 1290
  457. Stream size                              : 30.0 KiB (0%)
  458. Title                                    : Traditional
  459. Language                                 : Chinese
  460. Default                                  : No
  461. Forced                                   : No

  462. Menu
  463. 01:32:43.000                             : en:Credits
复制代码




TAGS 剧情

磁力链:
  • magnet:?xt=urn:btih:E90D42623D3D281B56A9D33BFC2C6BDFAE577EC1
上传的附件:
BT9527电影天堂 1、BT9527电影天堂提供的BT文件均来源于互联网抓取,只供网友学习交流、技术提升使用。
2、我们遵守BitTorrent点对点协议原则,任何版权问题请联系原资源发布商,我们不处理任何版权纠纷,谢谢!如有争议请联系邮箱:BT9527#hotmail.com(#换成@)
3、如果您发现某页面或地址有错误,请联系站长邮箱BT9527#hotmail.com(#换成@),我们会尽快处理。您的热心是对BT9527电影天堂最大的支持。
4、本站建议去正规影院观看电影以支持电影行业发展。
最新回复 (0)

你可以在 登录 or 注册 后,对此帖发表评论!

返回
发新帖