棒球少女[中文字幕].Baseball.Girl.2019.1080p.WEB-DL.AAC.2.0.H.264-CTRLWEB 2.74GB

版主小s 6月前 922



◎译  名 棒球少女 / Baseball Girl
◎片  名 ????
◎年  代 2019
◎产  地 韩国
◎类  别 剧情 / 运动
◎语  言 韩语
◎上映日期 2019-10-09(釜山电影节) / 2020-06-18(韩国)
◎IMDb链接 https://www.imdb.com/title/tt11644332/
◎豆瓣评分 7.1/10 (2146人评价)
◎豆瓣链接 https://movie.douban.com/subject/33404216/
◎片  长 105分钟
◎导  演 崔俊泰 Yun-tae Choi (id:1414176)
◎编  剧 崔俊泰 Yun-tae Choi (id:1414176)
◎演  员 李珠英 Joo-young Lee (id:1364865)
       李浚赫 Jun-hyuk Lee (id:1314635)
       廉惠兰 Yum Hye-ran (id:1378885)
       刘在明 Jae-myung Yoo (id:1376010)
       郭东延 Gwak Dong Yeon (id:1333577)
       宋英奎 Young-kyu Song (id:1375287)
       李彩恩 Chai-eun Lee (id:1408012)
       张宥 Sang-hee Lee (id:1448121)
       韩相祖 Han Sang Jo (id:1471113)

◎简  介
  讲述女高中生为实现梦想而打破女性不能成为职业棒球运动员的惯例,成为韩国首位女性职业棒球运动员的故事,郭东延在影片中饰演自幼与女主人公一起长大,早早就成为职业棒球选手,与女主人公既是朋友,又是竞争对手的角色。

◎获奖情况 (共1项)
  第41届韩国电影青龙奖 (2020)
  最佳新人女演员(提名)
   └──李珠英 (id:1364865)

  1. ##### MediaInfo ######
  2. General
  3. Unique ID                                : 232410048552375518018788587707553328134 (0xAED88C148928E241C8775B34DABCAC06)
  4. Complete name                            : Baseball.Girl.2019.1080p.WEB-DL.AAC.2.0.H.264-CTRLWEB.mkv
  5. Format                                   : Matroska
  6. Format version                           : Version 4
  7. File size                                : 2.74 GiB
  8. Duration                                 : 1 h 45 min
  9. Overall bit rate                         : 3 738 kb/s
  10. Encoded date                             : UTC 2022-05-26 05:40:37
  11. Writing application                      : mkvmerge v65.0.0 ('Too Much') 64-bit
  12. Writing library                          : libebml v1.4.2 + libmatroska v1.6.4
  13. Video
  14. ID                                       : 1
  15. Format                                   : AVC
  16. Format/Info                              : Advanced Video Codec
  17. Format profile                           : High@L4.1
  18. Format settings                          : CABAC / 1 Ref Frames
  19. Format settings, CABAC                   : Yes
  20. Format settings, Reference frames        : 1 frame
  21. Format settings, GOP                     : M=1, N=60
  22. Codec ID                                 : V_MPEG4/ISO/AVC
  23. Duration                                 : 1 h 45 min
  24. Bit rate mode                            : Constant
  25. Bit rate                                 : 3 609 kb/s
  26. Nominal bit rate                         : 4 000 kb/s
  27. Width                                    : 1 920 pixels
  28. Height                                   : 1 080 pixels
  29. Display aspect ratio                     : 16:9
  30. Frame rate mode                          : Constant
  31. Frame rate                               : 29.970 (30000/1001/53354) FPS
  32. Color space                              : YUV
  33. Chroma subsampling                       : 4:2:0
  34. Bit depth                                : 8 bits
  35. Scan type                                : Progressive
  36. Bits/(Pixel*Frame)                       : 0.058
  37. Stream size                              : 2.65 GiB (97%)
  38. Default                                  : Yes
  39. Forced                                   : No
  40. Audio
  41. ID                                       : 2
  42. Format                                   : AAC LC
  43. Format/Info                              : Advanced Audio Codec Low Complexity
  44. Codec ID                                 : A_AAC-2
  45. Duration                                 : 1 h 45 min
  46. Bit rate                                 : 125 kb/s
  47. Channel(s)                               : 2 channels
  48. Channel layout                           : L R
  49. Sampling rate                            : 48.0 kHz
  50. Frame rate                               : 46.875 FPS (1024 SPF)
  51. Compression mode                         : Lossy
  52. Stream size                              : 94.3 MiB (3%)
  53. Default                                  : Yes
  54. Forced                                   : No
  55. Text
  56. ID                                       : 3
  57. Format                                   : UTF-8
  58. Codec ID                                 : S_TEXT/UTF8
  59. Codec ID/Info                            : UTF-8 Plain Text
  60. Duration                                 : 1 h 42 min
  61. Bit rate                                 : 36 b/s
  62. Count of elements                        : 1109
  63. Stream size                              : 27.2 KiB (0%)
  64. Title                                    : Traditional (SDH)
  65. Language                                 : Chinese
  66. Default                                  : No
  67. Forced                                   : No
复制代码




TAGS 剧情 运动 /

磁力链:
  • magnet:?xt=urn:btih:98F2493D6846FA115D6F6FDADA5D9EE15B7F0A7B
上传的附件:
BT9527电影天堂 1、BT9527电影天堂提供的BT文件均来源于互联网抓取,只供网友学习交流、技术提升使用。
2、我们遵守BitTorrent点对点协议原则,任何版权问题请联系原资源发布商,我们不处理任何版权纠纷,谢谢!如有争议请联系邮箱:BT9527#hotmail.com(#换成@)
3、如果您发现某页面或地址有错误,请联系站长邮箱BT9527#hotmail.com(#换成@),我们会尽快处理。您的热心是对BT9527电影天堂最大的支持。
4、本站建议去正规影院观看电影以支持电影行业发展。
最新回复 (0)

你可以在 登录 or 注册 后,对此帖发表评论!

返回
发新帖