恋爱谈[中文字幕].Our.Love.Story.2016.1080p.TVING.WEB-DL.AAC2.0.H.264-CTRLWEB 3.55GB

版主小s 6月前 815



◎译  名 恋爱谈 / Our Love Story
◎片  名 ???
◎年  代 2016
◎产  地 韩国
◎类  别 剧情 / 爱情 / 同性
◎语  言 韩语
◎上映日期 2016-05-01(全州国际电影节)
◎IMDb链接 https://www.imdb.com/title/tt6129730/
◎豆瓣评分 7.8/10 (27724人评价)
◎豆瓣链接 https://movie.douban.com/subject/26748688/
◎片  长 99分钟
◎导  演 李贤珠 Hyunju Lee (id:1364095)
◎编  剧 李贤珠 Hyunju Lee (id:1364095)
◎演  员 李尚熙 Sang-hee Lee (id:1365338)
       柳善英 Abell Ryu (id:1366526)
       朴根禄 Keun-rok Park (id:1366649)
       林颂幂 Sung-mi Lim (id:1366650)
       金钟秀 Jong-soo Kim (id:1366651)
       金其范 Kim Gi-beom (id:1387806)
       Woo-ram Yoo Woo-ram Yoo (id:1391386)
       俞永植 Yong-sik Yu (id:1346372)

◎简  介
  学美术的允珠(李尚熙)在准备毕业展示时遇到了一名经常引起她注意的人。允珠从对方和自己偶然相撞的眼神中感受到了温暖,渐渐地被对方吸引了。一边打零工一般寻找梦想的智书(柳善英)在某个寒冷的冬日里遇到了用温暖的眼神看着自己的某人。不久后,再次邂逅那个人的智书遵从内心向她伸出了手。

◎获奖情况 (共8项)
  第38届韩国电影青龙奖 (2017)
  最佳新人导演
   └──李贤珠 (id:1364095)
  最佳新人女演员(提名)
   └──李尚熙 (id:1365338)

  第64届圣塞巴斯蒂安国际电影节 (2016)
  最佳新导演(提名)
   └──李贤珠 (id:1364095)

  第53届百想艺术大赏 (2017)
  电影类 最佳新人女演员
   └──李尚熙 (id:1365338)
  电影类 最佳新人导演(提名)
   └──李贤珠 (id:1364095)

  第4届豆瓣电影年度榜单 (2017)
  评分最高的韩国电影(提名)
  评分最高的爱情片(提名)
  年度LGBT电影(提名)

  1. ##### MediaInfo ######
  2. General
  3. Unique ID                                : 279756227270036646780524711771225697511 (0xD27716EAF7A0F04AFDF78F9B4DCFACE7)
  4. Complete name                            : Our.Love.Story.2016.1080p.TVING.WEB-DL.AAC2.0.H.264-CTRLWEB.mkv
  5. Format                                   : Matroska
  6. Format version                           : Version 4
  7. File size                                : 3.55 GiB
  8. Duration                                 : 1 h 39 min
  9. Overall bit rate                         : 5 130 kb/s
  10. Encoded date                             : UTC 2022-05-29 11:50:09
  11. Writing application                      : mkvmerge v65.0.0 ('Too Much') 64-bit
  12. Writing library                          : libebml v1.4.2 + libmatroska v1.6.4
  13. Video
  14. ID                                       : 1
  15. Format                                   : AVC
  16. Format/Info                              : Advanced Video Codec
  17. Format profile                           : Baseline@L4
  18. Format settings                          : 2 Ref Frames
  19. Format settings, CABAC                   : No
  20. Format settings, Reference frames        : 2 frames
  21. Codec ID                                 : V_MPEG4/ISO/AVC
  22. Duration                                 : 1 h 39 min
  23. Bit rate mode                            : Constant
  24. Bit rate                                 : 5 000 kb/s
  25. Width                                    : 1 920 pixels
  26. Height                                   : 1 080 pixels
  27. Display aspect ratio                     : 16:9
  28. Frame rate mode                          : Constant
  29. Frame rate                               : 23.976 (24000/1001/53354) FPS
  30. Color space                              : YUV
  31. Chroma subsampling                       : 4:2:0
  32. Bit depth                                : 8 bits
  33. Scan type                                : Progressive
  34. Bits/(Pixel*Frame)                       : 0.101
  35. Stream size                              : 3.46 GiB (97%)
  36. Default                                  : Yes
  37. Forced                                   : No
  38. Audio
  39. ID                                       : 2
  40. Format                                   : AAC LC
  41. Format/Info                              : Advanced Audio Codec Low Complexity
  42. Codec ID                                 : A_AAC-2
  43. Duration                                 : 1 h 39 min
  44. Bit rate                                 : 128 kb/s
  45. Channel(s)                               : 2 channels
  46. Channel layout                           : L R
  47. Sampling rate                            : 44.1 kHz
  48. Frame rate                               : 43.066 FPS (1024 SPF)
  49. Compression mode                         : Lossy
  50. Stream size                              : 90.8 MiB (2%)
  51. Language                                 : Korean
  52. Default                                  : Yes
  53. Forced                                   : No
  54. Text #1
  55. ID                                       : 3
  56. Format                                   : UTF-8
  57. Codec ID                                 : S_TEXT/UTF8
  58. Codec ID/Info                            : UTF-8 Plain Text
  59. Duration                                 : 1 h 34 min
  60. Bit rate                                 : 32 b/s
  61. Count of elements                        : 1021
  62. Stream size                              : 22.1 KiB (0%)
  63. Title                                    : Chinese Simplified
  64. Language                                 : Chinese
  65. Default                                  : Yes
  66. Forced                                   : No
  67. Text #2
  68. ID                                       : 4
  69. Format                                   : UTF-8
  70. Codec ID                                 : S_TEXT/UTF8
  71. Codec ID/Info                            : UTF-8 Plain Text
  72. Duration                                 : 1 h 34 min
  73. Bit rate                                 : 32 b/s
  74. Count of elements                        : 1021
  75. Stream size                              : 22.1 KiB (0%)
  76. Title                                    : Chinese Traditional
  77. Language                                 : Chinese
  78. Default                                  : Yes
  79. Forced                                   : No
复制代码




TAGS 剧情 爱情 同性 /

磁力链:
  • magnet:?xt=urn:btih:6A53150846EA7CB8AD8625BF2517E143E1467570
上传的附件:
BT9527电影天堂 1、BT9527电影天堂提供的BT文件均来源于互联网抓取,只供网友学习交流、技术提升使用。
2、我们遵守BitTorrent点对点协议原则,任何版权问题请联系原资源发布商,我们不处理任何版权纠纷,谢谢!如有争议请联系邮箱:BT9527#hotmail.com(#换成@)
3、如果您发现某页面或地址有错误,请联系站长邮箱BT9527#hotmail.com(#换成@),我们会尽快处理。您的热心是对BT9527电影天堂最大的支持。
4、本站建议去正规影院观看电影以支持电影行业发展。
最新回复 (0)

你可以在 登录 or 注册 后,对此帖发表评论!

返回
发新帖