太阳之歌[中英字幕].Midnight.Sun.2006.BluRay.1080p.x265.10bit-MiniHD 4.94GB

版主小s 6月前 497

◎译 名 太阳之歌 / 午夜的阳光(台) / Midnight Sun / Taiy? no uta

◎片 名 タイヨウのうた

◎年 代 2006

◎产 地 日本

◎类 别 剧情 / 爱情

◎语 言 日语

◎上映日期 2006-06-17(日本)

◎IMDb链接 https://www.imdb.com/title/tt0844347/

◎豆瓣评分 7.7/10 (10935人评价)

◎豆瓣链接 https://movie.douban.com/subject/1918027/

◎片 长 119 分钟

◎导 演 小泉德宏 Norihiro Koizumi (id:1320139)

◎编 剧 坂东贤治 Kenji Bando (id:1334522)

◎演 员 吉冈唯 Yoshioka Yui (id:1245732)

塚本高史 Takashi Tsukamoto (id:1041892)

麻木久仁子 Kuniko Asagi (id:1043211)

岸谷五朗 Gor? Kishitani (id:1104077)

布施绘里 Eri Fuse (id:1051850)

通山愛里 Airi T?riyama (id:1368384)

小柳友 Y? Koyanagi (id:1314318)

山崎一 Hajime Yamazaki (id:1054024)

要润 Jun Kaname (id:1032983)

吉冈唯 Yoshioka Yui (id:1245732)

◎简 介

居住在海滨小镇的16岁女孩雨音薰(YUI 饰)青春美丽,然而正值花季的她却无法像同龄人一般在洒满阳光的海滩边自由玩耍与奔跑。原来薰罹患一种罕见的疾病——XP色素性干皮症,她的皮肤不能接受阳光照射,否则将出现生命危险。从此白天与之无缘,薰只能终日躲在家中,唯一的乐趣也只是趁着夜晚踱到车站广场唱着自己喜爱的歌。在这一过程中,薰渐渐喜欢上时常路过车站的冲浪男孩藤代孝治(塚本高史 饰)。某天,她带着胆子追上去,对孝治表白。温柔的海风,吹拂着他们慢慢升温的恋情。可是,薰就像童话中的灰姑娘,无论怎样眷恋都必须在日出前赶回家中。对于生命之火渐渐微弱的她来说,无论爱情还是音乐,都已成为无比奢侈的东西了……

◎获奖情况 (共1项)

第30届日本电影学院奖 (2007)

最佳新人

└──吉冈唯 (id:1245732)

  1. ##### MediaInfo ######

  2. General

  3. Unique ID : 219752651652652142896325100342736836143 (0xA552D23B51A0E8B28B9EE0AB13EFD62F)

  4. Complete name : Midnight.Sun.2006.BluRay.1080p.x265.10bit-MiniHD.mkv

  5. Format : Matroska

  6. Format version : Version 4

  7. File size : 4.93 GiB

  8. Duration : 2 h 1 min

  9. Overall bit rate : 5 799 kb/s

  10. Encoded date : UTC 2017-09-18 08:08:53

  11. Writing application : mkvmerge v11.0.0 ('Alive') 64bit

  12. Writing library : libebml v1.3.4 + libmatroska v1.4.5

  13. Video

  14. ID : 1

  15. Format : HEVC

  16. Format/Info : High Efficiency Video Coding

  17. Codec ID : V_MPEGH/ISO/HEVC

  18. Duration : 2 h 1 min

  19. Bit rate : 5 043 kb/s

  20. Width : 1 916 pixels

  21. Height : 1 032 pixels

  22. Display aspect ratio : 1.85:1

  23. Frame rate mode : Constant

  24. Frame rate : 23.976 (24000/1001/53354) FPS

  25. Bits/(Pixel*Frame) : 0.106

  26. Stream size : 4.29 GiB (87%)

  27. Default : Yes

  28. Forced : No

  29. Audio

  30. ID : 2

  31. Format : AC-3

  32. Format/Info : Audio Coding 3

  33. Commercial name : Dolby Digital

  34. Codec ID : A_AC3

  35. Duration : 2 h 1 min

  36. Bit rate mode : Constant

  37. Bit rate : 640 kb/s

  38. Channel(s) : 6 channels

  39. Channel layout : L R C LFE Ls Rs

  40. Sampling rate : 48.0 kHz

  41. Frame rate : 31.250 FPS (1536 SPF)

  42. Compression mode : Lossy

  43. Stream size : 558 MiB (11%)

  44. Language : Japanese

  45. Service kind : Complete Main

  46. Default : Yes

  47. Forced : No

  48. Text #1

  49. ID : 3

  50. Format : PGS

  51. Muxing mode : zlib

  52. Codec ID : S_HDMV/PGS

  53. Codec ID/Info : Picture based subtitle format used on BDs/HD-DVDs

  54. Language : English

  55. Default : Yes

  56. Forced : No

  57. Text #2

  58. ID : 4

  59. Format : PGS

  60. Muxing mode : zlib

  61. Codec ID : S_HDMV/PGS

  62. Codec ID/Info : Picture based subtitle format used on BDs/HD-DVDs

  63. Language : Chinese

  64. Default : No

  65. Forced : No

  66. Text #3

  67. ID : 5

  68. Format : PGS

  69. Muxing mode : zlib

  70. Codec ID : S_HDMV/PGS

  71. Codec ID/Info : Picture based subtitle format used on BDs/HD-DVDs

  72. Language : Chinese

  73. Default : No

  74. Forced : No

  75. Menu

  76. 00:00:00.000 : en:Chapter 01

  77. 00:05:27.243 : en:Chapter 02

  78. 00:09:11.008 : en:Chapter 03

  79. 00:14:08.389 : en:Chapter 04

  80. 00:18:20.516 : en:Chapter 05

  81. 00:26:25.000 : en:Chapter 06

  82. 00:33:12.615 : en:Chapter 07

  83. 00:38:10.788 : en:Chapter 08

  84. 00:45:20.718 : en:Chapter 09

  85. 00:57:09.759 : en:Chapter 10

  86. 01:04:12.849 : en:Chapter 11

  87. 01:10:31.810 : en:Chapter 12

  88. 01:18:18.151 : en:Chapter 13

  89. 01:25:31.876 : en:Chapter 14

  90. 01:34:20.071 : en:Chapter 15

  91. 01:41:02.890 : en:Chapter 16

  92. 01:49:34.985 : en:Chapter 17

  93. 01:56:00.954 : en:Chapter 18


复制代码


TAGS 剧情 爱情 /

磁力链:
  • magnet:?xt=urn:btih:903D4852FA7708FCB7D0136F5E13D3E284D096DC
上传的附件:
BT9527电影天堂 1、BT9527电影天堂提供的BT文件均来源于互联网抓取,只供网友学习交流、技术提升使用。
2、我们遵守BitTorrent点对点协议原则,任何版权问题请联系原资源发布商,我们不处理任何版权纠纷,谢谢!如有争议请联系邮箱:BT9527#hotmail.com(#换成@)
3、如果您发现某页面或地址有错误,请联系站长邮箱BT9527#hotmail.com(#换成@),我们会尽快处理。您的热心是对BT9527电影天堂最大的支持。
4、本站建议去正规影院观看电影以支持电影行业发展。
最新回复 (0)

你可以在 登录 or 注册 后,对此帖发表评论!

返回
发新帖