奏鸣曲[中文字幕].Sonatine.1993.BluRay.1080p.x265.10bit-MiniHD 3.99GB

版主小s 6月前 542

◎译 名 奏鸣曲 / 小奏鸣曲 / Sonatine

◎片 名 ソナチネ

◎年 代 1993

◎产 地 日本

◎类 别 剧情 / 犯罪

◎语 言 日语

◎上映日期 1993-09-10(日本)

◎IMDb链接 https://www.imdb.com/title/tt0108188/

◎豆瓣评分 8.4/10 (19078人评价)

◎豆瓣链接 https://movie.douban.com/subject/1298351/

◎片 长 94分钟

◎导 演 北野武 Takeshi Kitano (id:1054423)

◎编 剧 北野武 Takeshi Kitano (id:1054423)

◎演 员 北野武 Takeshi Kitano (id:1054423)

国舞亚矢 Aya Kokumai (id:1001596)

渡边哲 Tetsu Watanabe (id:1321530)

胜村政信 Masanobu Katsumura (id:1314383)

寺岛进 Susumu Terajima (id:1041631)

大杉涟 Ren Ohsugi (id:1134227)

森下能幸 Yoshiyuki Morishita (id:1038001)

津田宽治 Kanji Tsuda (id:1054163)

木下邦家 Houka Kinoshita (id:1008390)

克里斯·布里顿 Chris Britton (id:1365122)

水森コウ太 K?ta Mizumori (id:1250035)

逗子とんぼ Zushi Tombo (id:1441212)

矢岛健一 Kenichi Yajima (id:1317536)

久石让 Joe Hisaishi (id:1035647)

柳岛克己 Katsumi Yanagijima (id:1301399)

北野武 Takeshi Kitano (id:1054423)

Toshihiro Tenma Toshihiro Tenma (id:1299056)

◎简 介

北岛组干部村川(北野武 饰)因与大老板(逗子とんぼ 饰)关系不佳,而被派去冲绳协助兄弟帮派对抗阿南组。村川等人的到来似乎激化了原有的矛盾,双方对抗不断升级。在一次酒吧枪战中,村川的手下中弹身亡,随后他与手下片桐(大杉涟 饰)、肯(寺道进 饰)等人躲到海边小屋中暂避风头。

在金黄的沙滩上,这群经历了血雨腥风的大男人们玩起了充满童真的游戏。然而他们的逍遥快活无法持续太久,北岛组和阿南组秘密联合,意欲将村川等人彻底铲除……

本片荣获1994年日本电影学院奖最佳电影原声、1995年法国干邑影展影评人奖。

◎获奖情况 (共1项)

第17届日本电影学院奖 (1994)

最佳配乐

└──久石让 (id:1035647)

  1. ##### MediaInfo ######

  2. General

  3. Unique ID : 222453008173562804212676269528943934753 (0xA75AE41659D75A3C9E25A87BBC6FBD21)

  4. Complete name : Sonatine.1993.BluRay.1080p.x265.10bit-MiniHD.mkv

  5. Format : Matroska

  6. Format version : Version 4

  7. File size : 3.99 GiB

  8. Duration : 1 h 33 min

  9. Overall bit rate : 6 099 kb/s

  10. Encoded date : UTC 2017-07-19 06:05:47

  11. Writing application : mkvmerge v11.0.0 ('Alive') 64bit

  12. Writing library : libebml v1.3.4 + libmatroska v1.4.5

  13. Video

  14. ID : 1

  15. Format : HEVC

  16. Format/Info : High Efficiency Video Coding

  17. Codec ID : V_MPEGH/ISO/HEVC

  18. Duration : 1 h 33 min

  19. Bit rate : 5 658 kb/s

  20. Width : 1 920 pixels

  21. Height : 1 038 pixels

  22. Display aspect ratio : 1.85:1

  23. Frame rate mode : Constant

  24. Frame rate : 24.000 FPS

  25. Bits/(Pixel*Frame) : 0.118

  26. Stream size : 3.70 GiB (93%)

  27. Default : Yes

  28. Forced : No

  29. Audio

  30. ID : 2

  31. Format : AC-3

  32. Format/Info : Audio Coding 3

  33. Commercial name : Dolby Digital

  34. Codec ID : A_AC3

  35. Duration : 1 h 33 min

  36. Bit rate mode : Constant

  37. Bit rate : 320 kb/s

  38. Channel(s) : 2 channels

  39. Channel layout : L R

  40. Sampling rate : 48.0 kHz

  41. Frame rate : 31.250 FPS (1536 SPF)

  42. Compression mode : Lossy

  43. Stream size : 214 MiB (5%)

  44. Language : Japanese

  45. Service kind : Complete Main

  46. Default : Yes

  47. Forced : No

  48. Text #1

  49. ID : 3

  50. Format : PGS

  51. Muxing mode : zlib

  52. Codec ID : S_HDMV/PGS

  53. Codec ID/Info : Picture based subtitle format used on BDs/HD-DVDs

  54. Language : Chinese

  55. Default : Yes

  56. Forced : No

  57. Text #2

  58. ID : 4

  59. Format : PGS

  60. Muxing mode : zlib

  61. Codec ID : S_HDMV/PGS

  62. Codec ID/Info : Picture based subtitle format used on BDs/HD-DVDs

  63. Language : Chinese

  64. Default : No

  65. Forced : No

  66. Menu

  67. 00:00:00.000 : en:Chapter 01

  68. 00:16:49.250 : en:Chapter 02

  69. 00:25:38.250 : en:Chapter 03

  70. 00:34:16.166 : en:Chapter 04

  71. 00:44:23.833 : en:Chapter 05

  72. 00:55:31.000 : en:Chapter 06

  73. 01:04:19.833 : en:Chapter 07

  74. 01:19:07.333 : en:Chapter 08


复制代码


TAGS 剧情 犯罪 /

磁力链:
  • magnet:?xt=urn:btih:A02A50433552AB450B71822A7EF0547D22677B34
上传的附件:
BT9527电影天堂 1、BT9527电影天堂提供的BT文件均来源于互联网抓取,只供网友学习交流、技术提升使用。
2、我们遵守BitTorrent点对点协议原则,任何版权问题请联系原资源发布商,我们不处理任何版权纠纷,谢谢!如有争议请联系邮箱:BT9527#hotmail.com(#换成@)
3、如果您发现某页面或地址有错误,请联系站长邮箱BT9527#hotmail.com(#换成@),我们会尽快处理。您的热心是对BT9527电影天堂最大的支持。
4、本站建议去正规影院观看电影以支持电影行业发展。
最新回复 (0)

你可以在 登录 or 注册 后,对此帖发表评论!

返回
发新帖