内裤队长[中文字幕].Annabelle.2014.1080p.BluRay.HEVC.10bit.DalekW@FRDS 0.98GB

版主小s 6月前 519

◎译 名 内裤队长 / 底底超人大电影(港)

◎片 名 Captain Underpants: The First Epic Movie

◎年 代 2017

◎产 地 美国

◎类 别 喜剧 / 动作 / 动画

◎语 言 英语

◎上映日期 2017-06-02(美国)

◎IMDb链接 https://www.imdb.com/title/tt2091256/

◎豆瓣评分 5.8/10 (2512人评价)

◎豆瓣链接 https://movie.douban.com/subject/7065160/

◎片 长 89分钟

◎导 演 大卫·索伦 David Soren (id:1329734)

◎编 剧 尼古拉斯·斯托勒 Nicholas Stoller (id:1031179)

戴夫·皮尔奇 Dav Pilkey (id:1374897)

大卫·索伦 David Soren (id:1329734)

◎演 员 凯文·哈特 Kevin Hart (id:1286162)

托马斯·米德蒂奇 Thomas Middleditch (id:1339676)

艾德·赫尔姆斯 Ed Helms (id:1004575)

尼克·克罗尔 Nick Kroll (id:1321396)

乔丹·皮尔 Jordan Peele (id:1032808)

克里斯汀·沙尔 Kristen Schaal (id:1214358)

迪迪·雷斯彻 DeeDee Rescher (id:1374898)

布莱恩·波塞恩 Brian Posehn (id:1009447)

大卫·索伦 David Soren (id:1329734)

梅尔·罗德里格斯 Mel Rodriguez (id:1348244)

苏珊·菲泽 Susan Fitzer (id:1374899)

琳娜·泽格 Lynnanne Zager (id:1374900)

蒂凡妮·劳伦·本尼克 Tiffany Lauren Bennicke (id:1374902)

詹姆斯·瑞恩 James Ryan (id:1374901)

莱斯利·大卫·贝克 Leslie David Baker (id:1180659)

舒格·林·彼尔德 Sugar Lyn Beard (id:1063771)

莱斯利·尼科尔 Lesley Nicol (id:1316416)

克里斯·米勒 Chris Miller (id:1313416)

可可·索伦 Coco Soren (id:1374903)

瑞恩·多尔西 Ryan Dorsey (id:1352318)

西奥多·沙皮洛 Theodore Shapiro (id:1028276)

◎简 介

两个四年级学生乔治(凯文·哈特配音)和哈罗德(托马斯·米德蒂奇配音),通过催眠术将霸道校长(艾迪·赫尔姆斯配音)变成了内裤队长。

◎获奖情况 (共4项)

第45届动画安妮奖 (2018)

最佳动画长片(提名)

最佳配音(提名)

└──尼克·克罗尔 (id:1321396)

最佳配乐(提名)

└──西奥多·沙皮洛 (id:1028276)

第16届美国视觉效果协会奖 (2018)

最佳动画电影视觉效果(提名)

  1. ##### MediaInfo ######

  2. General

  3. Unique ID : 199621123074153375372687664114326512080 (0x962DA13D97998416B66074A5BDE721D0)

  4. Complete name : 安娜贝拉.Annabelle.2014.1080p.BluRay.HEVC.10bit.DalekW@FRDS.mkv

  5. Format : Matroska

  6. Format version : Version 4

  7. File size : 1 001 MiB

  8. Duration : 1 h 38 min

  9. Overall bit rate : 1 416 kb/s

  10. Encoded date : UTC 2017-10-25 01:03:00

  11. Writing application : mkvmerge v17.0.0 ('Be Ur Friend') 64-bit

  12. Writing library : libebml v1.3.5 + libmatroska v1.4.8

  13. Cover : Yes

  14. Attachments : cover.jpg

  15. Video

  16. ID : 1

  17. Format : HEVC

  18. Format/Info : High Efficiency Video Coding

  19. Format profile : Main 10@L4@High

  20. Codec ID : V_MPEGH/ISO/HEVC

  21. Duration : 1 h 38 min

  22. Bit rate : 1 146 kb/s

  23. Width : 1 920 pixels

  24. Height : 800 pixels

  25. Display aspect ratio : 2.40:1

  26. Frame rate mode : Constant

  27. Frame rate : 23.976 (24000/1001/53354) FPS

  28. Color space : YUV

  29. Chroma subsampling : 4:2:0

  30. Bit depth : 10 bits

  31. Bits/(Pixel*Frame) : 0.031

  32. Stream size : 810 MiB (81%)

  33. Writing library : x265 2.5+27-0e168bdeb48b:[Windows][MSVC 1911][64 bit] 10bit

  34. Encoding settings : cpuid=533541173503 / frame-threads=2 / numa-pools=4 / wpp / no-pmode / no-pme / no-psnr / no-ssim / log-level=2 / input-csp=1 / input-res=1920x800 / interlace=0 / total-frames=0 / level-idc=0 / high-tier=1 / uhd-bd=0 / ref=4 / no-allow-non-conformance / no-repeat-headers / annexb / no-aud / no-hrd / info / hash=0 / no-temporal-layers / no-open-gop / min-keyint=1 / keyint=1600 / bframes=4 / b-adapt=2 / b-pyramid / bframe-bias=0 / rc-lookahead=25 / lookahead-slices=4 / NTMzNTQ=uuDQuD2mJt9fsCf / scenecut=40 / no-intra-refresh / ctu=64 / min-cu-size=8 / no-rect / no-amp / max-tu-size=32 / tu-inter-depth=1 / tu-intra-depth=1 / limit-tu=0 / rdoq-level=2 / dynamic-rd=0.00 / no-ssim-rd / signhide / no-tskip / nr-intra=0 / nr-inter=0 / no-constrained-intra / no-strong-intra-smoothing / max-merge=3 / limit-refs=3 / limit-modes / me=3 / subme=3 / merange=44 / temporal-mvp / weightp / weightb / no-analyze-src-pics / deblock=0:0 / no-sao / no-sao-non-deblock / rd=4 / no-early-skip / rskip / no-fast-intra / no-tskip-fast / no-cu-lossless / no-b-intra / no-splitrd-skip / rdpenalty=0 / psy-rd=2.00 / psy-rdoq=1.00 / no-rd-refine / analysis-reuse-mode=0 / no-lossless / cbqpoffs=0 / crqpoffs=0 / rc=crf / crf=21.0 / qcomp=0.65 / qpstep=4 / stats-write=0 / stats-read=0 / vbv-maxrate=21000 / vbv-bufsize=21000 / vbv-init=0.9 / crf-max=0.0 / crf-min=0.0 / ipratio=1.40 / pbratio=1.30 / aq-mode=2 / aq-strength=1.00 / cutree / zone-count=0 / no-strict-cbr / qg-size=32 / no-rc-grain / qpmax=69 / qpmin=0 / no-const-vbv / sar=0 / overscan=0 / videoformat=5 / range=0 / colorprim=1 / transfer=2 / colormatrix=2 / chromaloc=0 / display-window=0 / max-cll=0,0 / min-luma=0 / max-luma=1023 / log2-max-poc-lsb=8 / vui-timing-info / vui-hrd-info / slices=1 / opt-qp-pps / opt-ref-list-length-pps / no-multi-pass-opt-rps / scenecut-bias=0.05 / no-opt-cu-delta-qp / no-aq-motion / no-hdr / no-hdr-opt / no-dhdr10-opt / analysis-reuse-level=5 / scale-factor=0 / refine-intra=0 / refine-inter=0 / refine-mv=0 / no-limit-sao / ctu-info=0

  35. Default : Yes

  36. Forced : No

  37. Color range : Limited

  38. Color primaries : BT.709

  39. Audio

  40. ID : 2

  41. Format : Opus

  42. Codec ID : A_OPUS

  43. Duration : 1 h 38 min

  44. Bit rate : 266 kb/s

  45. Channel(s) : 6 channels

  46. Channel layout : L R C Ls Rs Cb LFE

  47. Sampling rate : 48.0 kHz

  48. Frame rate : 50.000 FPS (960 SPF)

  49. Compression mode : Lossy

  50. Stream size : 188 MiB (19%)

  51. Language : English

  52. Default : Yes

  53. Forced : No

  54. Text

  55. ID : 3

  56. Format : SSA

  57. Codec ID : S_TEXT/SSA

  58. Codec ID/Info : Sub Station Alpha

  59. Duration : 1 h 37 min

  60. Bit rate : 63 b/s

  61. Count of elements : 912

  62. Compression mode : Lossless

  63. Stream size : 45.3 KiB (0%)

  64. Language : Chinese

  65. Default : Yes

  66. Forced : No

  67. Menu

  68. 00:00:00.000 : en:00:00:00.000

  69. 00:11:58.092 : en:00:11:58.092

  70. 00:19:55.152 : en:00:19:55.152

  71. 00:30:13.603 : en:00:30:13.603

  72. 00:39:09.973 : en:00:39:09.973

  73. 00:51:15.489 : en:00:51:15.489

  74. 00:59:49.169 : en:00:59:49.169

  75. 01:10:05.159 : en:01:10:05.159

  76. 01:20:25.279 : en:01:20:25.279

  77. 01:31:54.008 : en:01:31:54.008

  78. 01:34:42.677 : en:01:34:42.677


TAGS 动作 动画 喜剧 /

磁力链:
  • magnet:?xt=urn:btih:9BC3328B2E063060A4CE3B584FD1C19F729A0666
上传的附件:
BT9527电影天堂 1、BT9527电影天堂提供的BT文件均来源于互联网抓取,只供网友学习交流、技术提升使用。
2、我们遵守BitTorrent点对点协议原则,任何版权问题请联系原资源发布商,我们不处理任何版权纠纷,谢谢!如有争议请联系邮箱:BT9527#hotmail.com(#换成@)
3、如果您发现某页面或地址有错误,请联系站长邮箱BT9527#hotmail.com(#换成@),我们会尽快处理。您的热心是对BT9527电影天堂最大的支持。
4、本站建议去正规影院观看电影以支持电影行业发展。
最新回复 (0)

你可以在 登录 or 注册 后,对此帖发表评论!

返回
发新帖