宿醉[共3部合集][繁英字幕].The.Hangover.1-3.2009-2013.BluRay.1080p.DTS-HD.MA5.1.x265.10bit-ALT 25.75GB

版主小s 6月前 349


◎译 名 宿醉 / 醉后大丈夫(台) / 醉爆伴郎团(港) / 醉醒时分

◎片 名 The Hangover

◎年 代 2009

◎产 地 美国

◎类 别 喜剧

◎语 言 英语

◎上映日期 2009-06-05

◎IMDb链接 https://www.imdb.com/title/tt1119646/

◎豆瓣评分 7.7/10 (221630人评价)

◎豆瓣链接 https://movie.douban.com/subject/3233761/

◎片 长 108分钟

◎导 演 托德·菲利普斯 Todd Phillips (id:1036390)

◎编 剧 乔恩·卢卡斯 Jon Lucas (id:1012142)

斯科特·摩尔 Scott Moore (id:1292422)

乔恩·卢卡斯 Jon Lucas (id:1290408)

◎演 员 布莱德利·库珀 Bradley Cooper (id:1013757)

艾德·赫尔姆斯 Ed Helms (id:1004575)

扎克·加利凡纳基斯 Zach Galifianakis (id:1027137)

贾斯汀·巴萨 Justin Bartha (id:1009257)

海瑟·格拉汉姆 Heather Graham (id:1048022)

萨莎·巴瑞斯 Sasha Barrese (id:1044918)

杰弗里·塔伯 Jeffrey Tambor (id:1010578)

郑肯 Ken Jeong (id:1275017)

迈克·泰森 Mike Tyson (id:1009368)

丽莎·卡塔拉 Lisa Catara (id:1462222)

布罗迪·史蒂文生 Brody Stevens (id:1153027)

艾普·蒙哥马利 April Montgomery (id:1424452)

艾丽萨·艾拉帕奇 Alisa Allapach (id:1421879)

丹·芬纳蒂 Dan Finnerty (id:1359743)

迈克尔·李 Michael Li (id:1302867)

斯科特·汤普森 Scott 'Carrot Top' Thompson (id:1055581)

安德鲁·阿斯特 Andrew Astor (id:1336798)

桑德拉·库瑞 Sondra Currie (id:1014060)

娜塔莉·菲伊 Nathalie Fay (id:1321490)

莉莉·温 Lily Winn (id:1271790)

乔丹·博比特 Jordan Bobbitt (id:1271639)

罗伯·里格尔 Rob Riggle (id:1044950)

迈克·艾普斯 Mike Epps (id:1040592)

托德·菲利普斯 Todd Phillips (id:1036390)

马特·沃尔什 Matt Walsh (id:1027861)

瑞秋·哈里斯 Rachael Harris (id:1013807)

乔·萨特里亚 Joe Satriani (id:1009835)

布莱恩·考伦 Bryan Callen (id:1006993)

杰西·欧文 Jesse Erwin (id:1083619)

米歇尔·霍尔曼 Mitch Holleman (id:1101582)

瑞德李察 Richard Reid (id:1269976)

马修·科贝特·戴维斯 Matthew Corbett Davis (id:1264219)

娜塔莉·科恩 Natalie Cohen (id:1263986)

蒂·艾萨基尔多 Ty Izquierdo (id:1260180)

兰内特·弗吉特 Lanette Fugit (id:1254935)

吉尔·布兰科 Guile Branco (id:1242312)

凯西·玛格丽斯 Casey Margolis (id:1241303)

大卫·希尔 David Hill (id:1231077)

伊恩·安东尼·代尔 Ian Anthony Dale (id:1171076)

迈克·瓦利 Mike Vallely (id:1155462)

詹姆斯·马丁·凯利 James Martin Kelly (id:1108852)

克利奥·金 Cleo King (id:1105936)

吉莲·韦格曼 Gillian Vigman (id:1004783)

托德·菲利普斯 Todd Phillips (id:1036390)

杰弗里·韦泽尔 Jeffrey Wetzel (id:1033049)

丹·芬纳蒂 Dan Finnerty (id:1359743)

托马斯·图尔 Thomas Tull (id:1348364)

丹尼尔·戈德堡 Daniel Goldberg (id:1285031)

克里斯托弗·贝克 Christophe Beck (id:1278180)

劳伦斯·谢尔 Lawrence Sher (id:1005371)

黛布拉·尼尔-费舍尔 Debra Neil-Fisher (id:1293005)

乔尔·贝斯特洛浦 Juel Bestrop (id:1278551)

丹妮尔·伯曼 Danielle Berman (id:1278470)

托德·荷兰 A. Todd Holland (id:1286802)

安德鲁·马克斯·卡恩 Andrew Max Cahn (id:1279850)

比尔·布鲁茨基 Bill Brzeski (id:1279534)

路易斯·明根巴赫 Louise Mingenbach (id:1292166)

基思·谢尔 Keith Sayer (id:1296787)

艾丽西娅·M·特里皮 Alicia M. Tripi (id:1299524)

洛瑞·麦考伊-贝尔 Lori McCoy-Bell (id:1291501)

帕特里夏·安德罗夫 Patricia Androff (id:1277266)

托尼·加德纳 Tony Gardner (id:1284564)

珍妮·施雷耶 Janeen Schreyer (id:1296963)

凯文·奥尼尔 Kevin O'Neil (id:1043112)

杰弗里·韦泽尔 Jeffrey Wetzel (id:1033049)

李·奥尔洛夫 Lee Orloff (id:1293624)

芮妮·泰姆尼 Renée Tymn (id:1067517)

◎简 介

道格(贾斯汀?巴萨 Justin Bartha 饰)即将与女友结婚。婚礼前两天,道格与朋友菲尔(布莱德利?库珀 Bradley Cooper 饰)、西德(艾德?赫尔姆斯 Ed Helms 饰)和阿兰(扎克?加利费安纳基斯 Zach Galifianakis 饰)从洛杉矶驱车前往赌城拉斯维加斯为道格举办婚前单身派对,入住凯撒宫豪华套房。一晚过后,三人发现道格失踪,浴室里出现一只老虎,衣橱中多了一个婴儿,西德缺了一颗牙,窗外塔尖上插着席梦思床垫,菲尔戴着医院手环,西德口袋里有一张800美金收据,而他们的车也不知为何变成了警车。三人惊慌失措,完全无法记起昨晚发生过什么,却必须在24小时之内迅速解决谜团找到道格返回洛杉矶……

◎获奖情况 (共13项)

第67届金球奖 (2010)

电影类 最佳音乐/喜剧片

第19届MTV电影奖 (2010)

MTV电影奖 年度电影(提名)

MTV电影奖 最佳喜剧表演

└──扎克·加利凡纳基斯 (id:1027137)

MTV电影奖 最佳喜剧表演(提名)

└──布莱德利·库珀 (id:1013757)

MTV电影奖 突破表演奖(提名)

└──扎克·加利凡纳基斯 (id:1027137)

MTV电影奖 最目瞪口呆场面

└──郑肯 (id:1275017)

MTV电影奖 最佳反派(提名)

└──郑肯 (id:1275017)

第10届美国电影学会奖 (2009)

年度佳片

第11届美国青少年选择奖 (2009)

最佳喜剧片(提名)

最佳电影反派(提名)

└──郑肯 (id:1275017)

Choice Movie Rockstar Moment(提名)

最佳暑期喜剧片(提名)

最佳暑期电影男演员(提名)

└──布莱德利·库珀 (id:1013757)

  1. 合集文件列表:

  2. 1.The.Hangover.2009.BluRay.1080p.TrueHD.5.1.x265.10bit-ALT.mkv 6.52GB

  3. 2.The.Hangover.Part.II.2011.BluRay.1080p.DTS-HD.MA5.1.x265.10bit-ALT.mkv 9.21GB

  4. 3.The.Hangover.Part.III.2013.BluRay.1080p.DTS-HD.MA5.1.x265.10bit-ALT.mkv 10.02GB


复制代码

  1. ##### MediaInfo ######

  2. General

  3. Unique ID : 73486720284022833111481900439177999818 (0x3749070AF5AB02CEC7F1EA019F4B35CA)

  4. Complete name : The.Hangover.2009.BluRay.1080p.TrueHD.5.1.x265.10bit-ALT.mkv

  5. Format : Matroska

  6. Format version : Version 4

  7. File size : 6.52 GiB

  8. Duration : 1 h 39 min

  9. Overall bit rate mode : Variable

  10. Overall bit rate : 9 358 kb/s

  11. Encoded date : UTC 2020-10-29 06:48:13

  12. Writing application : mkvmerge v49.0.0 ('Sick Of Losing Soulmates') 64-bit

  13. Writing library : libebml v1.4.0 + libmatroska v1.6.1

  14. Video

  15. ID : 1

  16. Format : HEVC

  17. Format/Info : High Efficiency Video Coding

  18. Format profile : Main 10@L5.1@High

  19. Codec ID : V_MPEGH/ISO/HEVC

  20. Duration : 1 h 39 min

  21. Bit rate : 7 161 kb/s

  22. Width : 1 920 pixels

  23. Height : 800 pixels

  24. Display aspect ratio : 2.40:1

  25. Frame rate mode : Constant

  26. Frame rate : 23.976 (24000/1001/53354) FPS

  27. Color space : YUV

  28. Chroma subsampling : 4:2:0

  29. Bit depth : 10 bits

  30. Bits/(Pixel*Frame) : 0.194

  31. Stream size : 4.99 GiB (77%)

  32. Title : HEVC, x265Main10@L5.1@High, 24/1.001 fps @ 7160 kbps

  33. Writing library : x265 3.4+14-gd419c7152:[Windows][GCC 10.2.0][64 bit] 10bit

  34. Encoding settings : cpuid=533541111039 / frame-threads=5 / numa-pools=44,44 / wpp / pmode / pme / no-psnr / no-ssim / log-level=2 / input-csp=1 / input-res=1920x800 / interlace=0 / total-frames=143521 / level-idc=51 / high-tier=1 / uhd-bd=0 / ref=5 / no-allow-non-conformance / no-repeat-headers / annexb / no-aud / no-hrd / info / hash=0 / no-temporal-layers / open-gop / min-keyint=24 / keyint=240 / gop-lookahead=0 / bframes=6 / b-adapt=2 / b-pyramid / bframe-bias=0 / rc-lookahead=40 / lookahead-slices=0 / NTMzNTQ=uuDQuD2mJt9fsCf / scenecut=40 / hist-scenecut=0 / radl=0 / no-splice / no-intra-refresh / ctu=32 / min-cu-size=8 / no-rect / no-amp / max-tu-size=32 / tu-inter-depth=3 / tu-intra-depth=3 / limit-tu=4 / rdoq-level=2 / dynamic-rd=0.00 / no-ssim-rd / signhide / no-tskip / nr-intra=0 / nr-inter=0 / no-constrained-intra / no-strong-intra-smoothing / max-merge=4 / limit-refs=1 / limit-modes / me=3 / subme=4 / merange=25 / temporal-mvp / no-frame-dup / no-hme / weightp / weightb / no-analyze-src-pics / deblock=-3:-3 / no-sao / no-sao-non-deblock / rd=6 / selective-sao=0 / no-early-skip / rskip / no-fast-intra / no-tskip-fast / no-cu-lossless / b-intra / no-splitrd-skip / rdpenalty=0 / psy-rd=2.00 / psy-rdoq=1.00 / no-rd-refine / no-lossless / cbqpoffs=0 / crqpoffs=0 / rc=crf / crf=18.5 / qcomp=0.65 / qpstep=4 / stats-write=0 / stats-read=0 / vbv-maxrate=80000 / vbv-bufsize=80000 / vbv-init=0.9 / crf-max=0.0 / crf-min=0.0 / ipratio=1.40 / pbratio=1.30 / aq-mode=2 / aq-strength=0.85 / cutree / zone-count=0 / no-strict-cbr / qg-size=32 / no-rc-grain / qpmax=69 / qpmin=0 / no-const-vbv / sar=1 / overscan=0 / videoformat=5 / range=0 / colorprim=1 / transfer=1 / colormatrix=1 / chromaloc=0 / display-window=0 / cll=0,0 / min-luma=0 / max-luma=1023 / log2-max-poc-lsb=8 / vui-timing-info / vui-hrd-info / slices=1 / no-opt-qp-pps / no-opt-ref-list-length-pps / no-multi-pass-opt-rps / scenecut-bias=0.05 / hist-threshold=0.03 / no-opt-cu-delta-qp / no-aq-motion / no-hdr10 / no-hdr10-opt / no-dhdr10-opt / no-idr-recovery-sei / analysis-reuse-level=0 / analysis-save-reuse-level=0 / analysis-load-reuse-level=0 / scale-factor=0 / refine-intra=0 / refine-inter=0 / refine-mv=1 / refine-ctu-distortion=0 / no-limit-sao / ctu-info=0 / no-lowpass-dct / refine-analysis-type=0 / copy-pic=1 / max-ausize-factor=1.0 / no-dynamic-refine / no-single-sei / no-hevc-aq / no-svt / no-field / qp-adaptation-range=1.00 / no-scenecut-aware-qpconformance-window-offsets / right=0 / bottom=0 / NTMzNTQ= / decoder-max-rate=0

  35. Language : English

  36. Default : Yes

  37. Forced : No

  38. Color range : Limited

  39. Color primaries : BT.709

  40. Transfer characteristics : BT.709

  41. Matrix coefficients : BT.709

  42. Audio #1

  43. ID : 2

  44. Format : MLP FBA

  45. Format/Info : Meridian Lossless Packing FBA

  46. Commercial name : Dolby TrueHD

  47. Codec ID : A_TRUEHD

  48. Duration : 1 h 39 min

  49. Bit rate mode : Variable

  50. Bit rate : 1 375 kb/s

  51. Maximum bit rate : 2 601 kb/s

  52. Channel(s) : 6 channels

  53. Channel layout : L R C LFE Ls Rs

  54. Sampling rate : 48.0 kHz

  55. Frame rate : 1 200.000 FPS (40 SPF)

  56. Compression mode : Lossless

  57. Stream size : 981 MiB (15%)

  58. Title : English Dolby TrueHD 5.1 @ 2118 kbps

  59. Language : English

  60. Default : Yes

  61. Forced : No

  62. Audio #2

  63. ID : 3

  64. Format : AC-3

  65. Format/Info : Audio Coding 3

  66. Commercial name : Dolby Digital

  67. Codec ID : A_AC3

  68. Duration : 1 h 39 min

  69. Bit rate mode : Constant

  70. Bit rate : 640 kb/s

  71. Channel(s) : 6 channels

  72. Channel layout : L R C LFE Ls Rs

  73. Sampling rate : 48.0 kHz

  74. Frame rate : 31.250 FPS (1536 SPF)

  75. Compression mode : Lossy

  76. Stream size : 457 MiB (7%)

  77. Title : English Dolby Digital Audio 5.1 @ 640 kbps

  78. Language : English

  79. Service kind : Complete Main

  80. Default : No

  81. Forced : No

  82. Text #1

  83. ID : 4

  84. Format : PGS

  85. Codec ID : S_HDMV/PGS

  86. Codec ID/Info : Picture based subtitle format used on BDs/HD-DVDs

  87. Duration : 1 h 39 min

  88. Bit rate : 46.5 kb/s

  89. Count of elements : 3306

  90. Stream size : 33.0 MiB (0%)

  91. Title : Eng/SUP

  92. Language : English

  93. Default : No

  94. Forced : No

  95. Text #2

  96. ID : 5

  97. Format : PGS

  98. Codec ID : S_HDMV/PGS

  99. Codec ID/Info : Picture based subtitle format used on BDs/HD-DVDs

  100. Duration : 1 h 38 min

  101. Bit rate : 35.4 kb/s

  102. Count of elements : 3012

  103. Stream size : 25.0 MiB (0%)

  104. Title : Cht/SUP 原盘繁体(HK)

  105. Language : Chinese

  106. Default : No

  107. Forced : No

  108. Text #3

  109. ID : 6

  110. Format : PGS

  111. Codec ID : S_HDMV/PGS

  112. Codec ID/Info : Picture based subtitle format used on BDs/HD-DVDs

  113. Duration : 1 h 38 min

  114. Bit rate : 36.9 kb/s

  115. Count of elements : 2986

  116. Stream size : 26.1 MiB (0%)

  117. Title : Cht/SUP 原盘繁体(TW)

  118. Language : Chinese

  119. Default : Yes

  120. Forced : No

  121. Menu

  122. 00:00:00.000 : :第 01 章

  123. 00:03:43.390 : :第 02 章

  124. 00:09:15.013 : :第 03 章

  125. 00:14:10.183 : :第 04 章

  126. 00:18:59.221 : :第 05 章

  127. 00:23:19.023 : :第 06 章

  128. 00:28:59.696 : :第 07 章

  129. 00:34:03.375 : :第 08 章

  130. 00:37:03.596 : :第 09 章

  131. 00:39:53.975 : :第 10 章

  132. 00:42:51.194 : :第 11 章

  133. 00:47:34.977 : :第 12 章

  134. 00:52:08.375 : :第 13 章

  135. 00:57:48.173 : :第 14 章

  136. 01:01:08.999 : :第 15 章

  137. 01:05:28.258 : :第 16 章

  138. 01:07:57.991 : :第 17 章

  139. 01:12:32.431 : :第 18 章

  140. 01:16:24.079 : :第 19 章

  141. 01:22:40.164 : :第 20 章

  142. 01:25:50.062 : :第 21 章

  143. 01:30:21.625 : :第 22 章

  144. 01:32:48.188 : :第 23 章

  145. 01:36:00.880 : :第 24 章


复制代码


TAGS 喜剧

磁力链:
  • magnet:?xt=urn:btih:CDD40CACBB1D5DF353164CDB0B4113BE4BA676EF
上传的附件:
BT9527电影天堂 1、BT9527电影天堂提供的BT文件均来源于互联网抓取,只供网友学习交流、技术提升使用。
2、我们遵守BitTorrent点对点协议原则,任何版权问题请联系原资源发布商,我们不处理任何版权纠纷,谢谢!如有争议请联系邮箱:BT9527#hotmail.com(#换成@)
3、如果您发现某页面或地址有错误,请联系站长邮箱BT9527#hotmail.com(#换成@),我们会尽快处理。您的热心是对BT9527电影天堂最大的支持。
4、本站建议去正规影院观看电影以支持电影行业发展。
最新回复 (0)

你可以在 登录 or 注册 后,对此帖发表评论!

返回
发新帖