霍比特人[共3部合集][简繁英字幕].The.Hobbit.Trilogy.2012-2014.BluRay.1080p.DTS-HD.MA.7.1.x265.10bit-ALT 50.56GB

版主小s 6月前 286

◎译 名 霍比特人1:意外之旅 / 哈比人:不思议之旅(港) / 哈比人:意外旅程(台) / The Hobbit: Part 1 / 指环王前传:霍比特人(上)

◎片 名 The Hobbit: An Unexpected Journey

◎年 代 2012

◎产 地 美国 / 新西兰

◎类 别 动作 / 奇幻 / 冒险

◎语 言 英语

◎上映日期 2013-02-22(中国大陆) / 2012-11-28(新西兰首映) / 2012-12-14(美国)

◎IMDb链接 https://www.imdb.com/title/tt0903624/

◎豆瓣评分 8.4/10 (382181人评价)

◎豆瓣链接 https://movie.douban.com/subject/1966182/

◎片 长 169分钟

◎导 演 彼得·杰克逊 Peter Jackson (id:1040524)

◎编 剧 弗兰·威尔士 Fran Walsh (id:1013998)

菲利帕·鲍恩斯 Philippa Boyens (id:1279114)

彼得·杰克逊 Peter Jackson (id:1040524)

吉尔莫·德尔·托罗 Guillermo del Toro (id:1027182)

J. R. R. 托尔金 J. R. R. Tolkien (id:1152849)

◎演 员 伊恩·麦克莱恩 Ian McKellen (id:1054410)

马丁·弗瑞曼 Martin Freeman (id:1049612)

理查德·阿米蒂奇 Richard Armitage (id:1022639)

肯·斯托特 Ken Stott (id:1313404)

格拉汉姆·麦克泰维什 Graham McTavish (id:1323191)

詹姆斯·内斯比特 James Nesbitt (id:1013997)

迪恩·奥戈曼 Dean O'Gorman (id:1131925)

艾丹·特纳 Aidan Turner (id:1018162)

雨果·维文 Hugo Weaving (id:1040994)

凯特·布兰切特 Cate Blanchett (id:1054441)

安迪·瑟金斯 Andy Serkis (id:1002708)

西尔维斯特·迈可伊 Sylvester McCoy (id:1118664)

克里斯托弗·李 Christopher Lee (id:1054467)

伊利亚·伍德 Elijah Wood (id:1054395)

伊安·霍姆 Ian Holm (id:1049594)

李·佩斯 Lee Pace (id:1018975)

本尼迪克特·康伯巴奇 Benedict Cumberbatch (id:1009405)

姜广涛 Guangtao Jiang (id:1317670)

马努·贝内特 Manu Bennett (id:1064898)

布雷特·麦肯齐 Bret McKenzie (id:1009383)

泰瑞·诺塔里 Terry Notary (id:1341026)

陆建艺 Jianyi Lu (id:1334341)

亚当·布朗 Adam Brown (id:1325972)

柯南·史蒂文斯 Conan Stevens (id:1320165)

布耐恩·布莱塞得 Brian Blessed (id:1027900)

杰德·布罗菲 Jed Brophy (id:1325970)

马克·哈德洛 Mark Hadlow (id:1325971)

约翰·凯伦 John Callen (id:1325969)

斯蒂芬·亨特 Stephen Hunter (id:1325968)

彼得·汉布尔顿 Peter Hambleton (id:1285902)

威廉·基尔舍 William Kircher (id:1288618)

巴瑞·哈姆弗莱斯 Barry Humphries (id:1004926)

鲁比·阿什伯恩·瑟金斯 Ruby Ashbourne Serkis (id:1434680)

约翰·劳斯 John Rawls (id:1327064)

迈克尔·米兹拉希 Michael Mizrahi (id:1327025)

海登·J·维尔 Hayden J. Weal (id:1445225)

史蒂芬·乌瑞 Stephen Ure (id:1155436)

杰弗瑞·托马斯 Jeffrey Thomas (id:1349041)

周志强 Zhiqiang Zhou (id:1320628)

彼得·杰克逊 Peter Jackson (id:1040524)

弗兰·威尔士 Fran Walsh (id:1013998)

卡勒姆·葛林 Callum Greene (id:1032949)

霍华德·肖 Howard Shore (id:1027953)

安德鲁·莱斯尼 Andrew Lesnie (id:1289847)

吉尔莫·德尔·托罗 Guillermo del Toro (id:1027182)

拉·文森特 Ra Vincent (id:1326164)

艾伦·李 Alan Lee (id:1109822)

约翰·豪 John Howe (id:1093203)

理查德·泰勒 Richard Taylor (id:1299006)

鲍勃·巴克 Bob Buck (id:1306441)

安·马斯克里 Ann Maskrey (id:1323004)

里克·芬勒特 Rick Findlater (id:1326167)

安迪·瑟金斯 Andy Serkis (id:1002708)

理查德·泰勒 Richard Taylor (id:1299006)

迈克尔·科琴斯 Michael Cozens (id:1408610)

埃里克·赛恩登 Eric Saindon (id:1038266)

瑞秋·劳伦森 Rachel Laurenson (id:1414103)

大卫·克莱顿 David Clayton (id:1326160)

勒妮·卡塔尔多 Renee Cataldo (id:1339077)

◎简 介

中土最后一座矮人王国埃尔波尔,巍峨壮丽,庄严雄伟。老国王索尔积聚大量财富,却引来恶龙史茅革的觊觎和荼毒,最终导致这座城池陷落。许多年后,灰袍巫师甘道夫(伊恩·麦凯伦 Ian McKellen 饰)找到弗罗多的舅舅——霍比特人比尔博·巴金斯(马丁·弗里曼 Martin John C. Freeman 饰),邀请他加入由13名矮人组成的远征队伍。原来史茅革已多年不见声息,背负家国仇恨的矮人王子索林(理查德·阿米蒂奇 Richard Armitage 饰)希望借此机会收复故土。经过一番考虑,巴金斯决定加入。令他想不到的是,远征旅途多灾多难,与索林结下深仇大恨的苍白半兽人及其爪牙阴魂不散,更有食人鬼和石人制造的无数艰险。而在旅途中,巴金斯也意外得到了日后影响整个中土的重要宝物……

本片根据J.R.R·托尔金的同名原著改编。

◎获奖情况 (共17项)

第85届奥斯卡金像奖 (2013)

最佳视觉效果(提名)

最佳艺术指导(提名)

最佳化妆与发型设计(提名)

第41届动画安妮奖 (2014)

最佳真人电影动画角色

第22届MTV电影奖 (2013)

MTV电影奖 最佳惊恐戏表演(提名)

└──马丁·弗瑞曼 (id:1049612)

MTV电影奖 最佳英雄形象

└──马丁·弗瑞曼 (id:1049612)

第18届美国评论家选择电影奖 (2013)

最佳美术指导(提名)

最佳服装设计(提名)

最佳发型化妆(提名)

最佳视觉效果(提名)

第11届华盛顿影评人协会奖 (2012)

最佳配乐(提名)

└──霍华德·肖 (id:1027953)

第12届凤凰城影评人协会奖 (2012)

最佳服装设计(提名)

最佳艺术指导(提名)

└──丹·汉纳 (id:1286442)

最佳视觉效果(提名)

第3届豆瓣电影鑫像奖 (2013)

鑫豆单元 最佳视觉效果(提名)

鑫豆单元 最佳歌曲(提名)

鑫豆单元 最佳落选影片(提名)

  1. 合集文件列表:

  2. 1.The.Hobbit.An.Unexpected.Journey.2012.BluRay.1080p.DTS-HD.MA.7.1.x265.10bit-ALT.mkv 17.80GB

  3. 2.The.Hobbit.The.Battle.of.the.Five.Armies.2014.BluRay.1080p.DTS-HD.MA.7.1.x265.10bit-ALT.mkv 16.54GB

  4. 3.The.Hobbit.The.Desolation.of.Smaug.2013.BluRay.1080p.DTS-HD.MA.7.1.x265.10bit-ALT.mkv 16.22GB


复制代码

  1. ##### MediaInfo ######

  2. General

  3. Unique ID : 14479720458213818978857364071634453786 (0xAE4B156354DE9D125AC50C3813C451A)

  4. Complete name : The.Hobbit.An.Unexpected.Journey.2012.BluRay.1080p.DTS-HD.MA.7.1.x265.10bit-ALT.mkv

  5. Format : Matroska

  6. Format version : Version 4

  7. File size : 17.8 GiB

  8. Duration : 3 h 2 min

  9. Overall bit rate mode : Variable

  10. Overall bit rate : 14.0 Mb/s

  11. Encoded date : UTC 2019-12-27 03:46:03

  12. Writing application : mkvmerge v41.0.0 ('Smarra') 64-bit

  13. Writing library : libebml v1.3.9 + libmatroska v1.5.2

  14. Video

  15. ID : 1

  16. Format : HEVC

  17. Format/Info : High Efficiency Video Coding

  18. Format profile : Main 10@L5.1@High

  19. HDR format : SMPTE ST 2086

  20. Codec ID : V_MPEGH/ISO/HEVC

  21. Duration : 3 h 2 min

  22. Bit rate : 8 366 kb/s

  23. Width : 1 920 pixels

  24. Height : 800 pixels

  25. Display aspect ratio : 2.40:1

  26. Frame rate mode : Constant

  27. Frame rate : 23.976 (24000/1001/53354) FPS

  28. Color space : YUV

  29. Chroma subsampling : 4:2:0

  30. Bit depth : 10 bits

  31. Bits/(Pixel*Frame) : 0.227

  32. Stream size : 10.7 GiB (60%)

  33. Title : HEVC, x265Main10@L5.1@High, 24/1.001 fps @ 8365 kbps

  34. Writing library : x265 3.0_Au+4-dcbec33bfb0f:[Windows][GCC 8.2.1][64 bit] 10bit

  35. Encoding settings : cpuid=533541111039 / frame-threads=4 / numa-pools=16 / wpp / pmode / pme / no-psnr / no-ssim / log-level=2 / input-csp=1 / input-res=1920x800 / interlace=0 / total-frames=262547 / level-idc=51 / high-tier=1 / uhd-bd=0 / ref=5 / no-allow-non-conformance / repeat-headers / annexb / no-aud / no-hrd / info / hash=0 / no-temporal-layers / no-open-gop / min-keyint=24 / keyint=240 / gop-lookahead=0 / bframes=6 / b-adapt=2 / b-pyramid / bframe-bias=0 / rc-lookahead=40 / lookahead-slices=0 / NTMzNTQ=uuDQuD2mJt9fsCf / scenecut=40 / radl=0 / no-splice / no-intra-refresh / ctu=32 / min-cu-size=8 / no-rect / no-amp / max-tu-size=32 / tu-inter-depth=3 / tu-intra-depth=3 / limit-tu=4 / rdoq-level=2 / dynamic-rd=0.00 / no-ssim-rd / signhide / no-tskip / nr-intra=0 / nr-inter=0 / no-constrained-intra / no-strong-intra-smoothing / max-merge=4 / limit-refs=1 / limit-modes / me=3 / subme=4 / merange=25 / temporal-mvp / weightp / weightb / no-analyze-src-pics / deblock=-3:-3 / no-sao / no-sao-non-deblock / rd=6 / no-early-skip / rskip / no-fast-intra / no-tskip-fast / no-cu-lossless / b-intra / no-splitrd-skip / rdpenalty=0 / psy-rd=2.00 / psy-rdoq=1.00 / no-rd-refine / no-lossless / cbqpoffs=0 / crqpoffs=0 / rc=crf / crf=17.0 / qcomp=0.65 / qpstep=4 / stats-write=0 / stats-read=0 / vbv-maxrate=80000 / vbv-bufsize=80000 / vbv-init=0.9 / crf-max=0.0 / crf-min=0.0 / ipratio=1.40 / pbratio=1.30 / aq-mode=2 / aq-strength=0.85 / cutree / zone-count=0 / no-strict-cbr / qg-size=32 / no-rc-grain / qpmax=69 / qpmin=0 / no-const-vbv / sar=1 / overscan=0 / videoformat=5 / range=0 / colorprim=1 / transfer=1 / colormatrix=1 / chromaloc=0 / display-window=0 / master-display=G(15000,30000)B(7500,3000)R(32000,16500)WP(15635,16450)L(10000000,1) / max-cll=1000,1 / min-luma=0 / max-luma=1023 / log2-max-poc-lsb=8 / vui-timing-info / vui-hrd-info / slices=1 / no-opt-qp-pps / no-opt-ref-list-length-pps / no-multi-pass-opt-rps / scenecut-bias=0.05 / no-opt-cu-delta-qp / no-aq-motion / hdr / no-hdr-opt / no-dhdr10-opt / no-idr-recovery-sei / analysis-reuse-level=5 / scale-factor=0 / refine-intra=0 / refine-inter=0 / refine-mv=0 / refine-ctu-distortion=0 / no-limit-sao / ctu-info=0 / no-lowpass-dct / refine-analysis-type=0 / copy-pic=1 / max-ausize-factor=1.0 / no-dynamic-refine / no-single-sei / no-hevc-aq / qp-adaptation-range=1.00

  36. Language : English

  37. Default : Yes

  38. Forced : No

  39. Color range : Limited

  40. Color primaries : BT.709

  41. Transfer characteristics : BT.709

  42. Matrix coefficients : BT.709

  43. Mastering display color primaries : BT.709

  44. Mastering display luminance : min: 0.0001 cd/m2, max: 1000 cd/m2

  45. Maximum Content Light Level : 1000 cd/m2

  46. Maximum Frame-Average Light Level : 1 cd/m2

  47. Audio #1

  48. ID : 2

  49. Format : DTS XLL

  50. Format/Info : Digital Theater Systems

  51. Commercial name : DTS-HD Master Audio

  52. Codec ID : A_DTS

  53. Duration : 3 h 2 min

  54. Bit rate mode : Variable

  55. Bit rate : 5 339 kb/s

  56. Channel(s) : 8 channels

  57. Channel layout : C L R LFE Lb Rb Lss Rss

  58. Sampling rate : 48.0 kHz

  59. Frame rate : 93.750 FPS (512 SPF)

  60. Bit depth : 24 bits

  61. Compression mode : Lossless

  62. Stream size : 6.81 GiB (38%)

  63. Title : English DTS-HD Master Audio 7.1 @ 5339 kbps

  64. Language : English

  65. Default : Yes

  66. Forced : No

  67. Audio #2

  68. ID : 3

  69. Format : AC-3

  70. Format/Info : Audio Coding 3

  71. Commercial name : Dolby Digital

  72. Codec ID : A_AC3

  73. Duration : 3 h 2 min

  74. Bit rate mode : Constant

  75. Bit rate : 192 kb/s

  76. Channel(s) : 2 channels

  77. Channel layout : L R

  78. Sampling rate : 48.0 kHz

  79. Frame rate : 31.250 FPS (1536 SPF)

  80. Compression mode : Lossy

  81. Stream size : 251 MiB (1%)

  82. Title : English Dolby Digital Audio 2.0 @ 192 kbps Commentary

  83. Language : English

  84. Service kind : Complete Main

  85. Default : No

  86. Forced : No

  87. Text #1

  88. ID : 4

  89. Format : PGS

  90. Codec ID : S_HDMV/PGS

  91. Codec ID/Info : Picture based subtitle format used on BDs/HD-DVDs

  92. Duration : 3 h 1 min

  93. Bit rate : 26.9 kb/s

  94. Count of elements : 4952

  95. Stream size : 34.9 MiB (0%)

  96. Title : Eng/SUP

  97. Language : English

  98. Default : No

  99. Forced : No

  100. Text #2

  101. ID : 5

  102. Format : PGS

  103. Codec ID : S_HDMV/PGS

  104. Codec ID/Info : Picture based subtitle format used on BDs/HD-DVDs

  105. Duration : 3 h 1 min

  106. Bit rate : 18.7 kb/s

  107. Count of elements : 4296

  108. Stream size : 24.2 MiB (0%)

  109. Title : Chs/SUP 原盘简体

  110. Language : Chinese

  111. Default : Yes

  112. Forced : No

  113. Text #3

  114. ID : 6

  115. Format : PGS

  116. Codec ID : S_HDMV/PGS

  117. Codec ID/Info : Picture based subtitle format used on BDs/HD-DVDs

  118. Duration : 3 h 1 min

  119. Bit rate : 19.4 kb/s

  120. Count of elements : 4352

  121. Stream size : 25.2 MiB (0%)

  122. Title : Cht/SUP 原盘繁体

  123. Language : Chinese

  124. Default : No

  125. Forced : No

  126. Menu

  127. 00:00:00.000 : en:第 01 章

  128. 00:10:11.903 : en:第 02 章

  129. 00:14:08.723 : en:第 03 章

  130. 00:17:27.255 : en:第 04 章

  131. 00:18:44.623 : en:第 05 章

  132. 00:23:16.604 : en:第 06 章

  133. 00:27:59.469 : en:第 07 章

  134. 00:36:04.871 : en:第 08 章

  135. 00:41:17.266 : en:第 09 章

  136. 00:46:30.830 : en:第 10 章

  137. 00:53:04.181 : en:第 11 章

  138. 00:58:07.651 : en:第 12 章

  139. 00:59:55.300 : en:第 13 章

  140. 01:10:42.405 : en:第 14 章

  141. 01:15:01.831 : en:第 15 章

  142. 01:18:52.811 : en:第 16 章

  143. 01:24:56.925 : en:第 17 章

  144. 01:30:34.429 : en:第 18 章

  145. 01:34:10.603 : en:第 19 章

  146. 01:37:24.464 : en:第 20 章

  147. 01:39:03.479 : en:第 21 章

  148. 01:41:40.803 : en:第 22 章

  149. 01:50:22.533 : en:第 23 章

  150. 01:52:59.773 : en:第 24 章

  151. 01:59:06.348 : en:第 25 章

  152. 02:03:57.513 : en:第 26 章

  153. 02:09:51.575 : en:第 27 章

  154. 02:23:21.426 : en:第 28 章

  155. 02:25:18.877 : en:第 29 章

  156. 02:26:31.199 : en:第 30 章

  157. 02:30:52.919 : en:第 31 章

  158. 02:33:00.546 : en:第 32 章

  159. 02:35:52.593 : en:第 33 章

  160. 02:46:51.210 : en:第 34 章

  161. 02:52:21.373 : en:第 35 章


复制代码


TAGS 动作 奇幻 冒险 /

磁力链:
  • magnet:?xt=urn:btih:0B8EB7F99524027A6495ED852F8E6EF5061E2C9B
上传的附件:
BT9527电影天堂 1、BT9527电影天堂提供的BT文件均来源于互联网抓取,只供网友学习交流、技术提升使用。
2、我们遵守BitTorrent点对点协议原则,任何版权问题请联系原资源发布商,我们不处理任何版权纠纷,谢谢!如有争议请联系邮箱:BT9527#hotmail.com(#换成@)
3、如果您发现某页面或地址有错误,请联系站长邮箱BT9527#hotmail.com(#换成@),我们会尽快处理。您的热心是对BT9527电影天堂最大的支持。
4、本站建议去正规影院观看电影以支持电影行业发展。
最新回复 (0)

你可以在 登录 or 注册 后,对此帖发表评论!

返回
发新帖