IRIS电影版[中文字幕].IRIS.The.Movie.2010.1080p.WEB-DL.AAC.2.0.H.264-CTRLWEB 3.18GB

版主小s 6月前 858

◎译 名 IRIS电影版 / 特务情人:电影版(台) / 特工IRIS 电影版 / IRIS:The Movie

◎片 名 ????: ? ??

◎年 代 2010

◎产 地 韩国

◎类 别 剧情 / 犯罪

◎语 言 韩语

◎上映日期 2010-10-12(韩国)

◎IMDb链接 https://www.imdb.com/title/tt1555024/

◎豆瓣评分 5.6/10 (3117人评价)

◎豆瓣链接 https://movie.douban.com/subject/6386983/

◎导 演 梁允豪 Yun-ho Yang (id:1042595)

金奎泰 Kyu-tae Kim (id:1328720)

◎编 剧 崔完圭 Wan-gyoo Choi (id:1320701)

◎演 员 李秉宪 Byung-hun Lee (id:1105108)

金泰希 Tae-hee Kim (id:1000847)

金素妍 So-yeon Kim (id:1041940)

郑俊镐 Jun-ho Jeong (id:1028544)

金承佑 Seung-woo Kim (id:1033579)

崔胜铉 Seung-hyun Choi (id:1275472)

◎简 介

以国家安全局(NSS)为舞台,讲述国家安全局要员与犯罪组织进行周旋、斗争的故事。故事中金贤俊(李秉宪饰)与陈思宇(郑俊浩饰)同属NSS机密要员,二人同时爱上了上司崔胜熙(金泰熙饰)。一天,贤俊与思宇被委派到执行一项秘密任务,竟发现韩国正在受到核武的威胁中。在这一触即发的情况下。两人不单要决择,如何挽救整个亚洲的核爆危机,并发现胜熙竟是……

  1. ##### MediaInfo ######

  2. General

  3. Unique ID : 220561112063051006985394823775928362541 (0xA5EE86684C3B8375D433697E539AA62D)

  4. Complete name : IRIS.The.Movie.2010.1080p.WEB-DL.AAC.2.0.H.264-CTRLWEB.mkv

  5. Format : Matroska

  6. Format version : Version 4

  7. File size : 3.18 GiB

  8. Duration : 1 h 58 min

  9. Overall bit rate : 3 852 kb/s

  10. Encoded date : UTC 2022-05-26 05:25:18

  11. Writing application : mkvmerge v65.0.0 ('Too Much') 64-bit

  12. Writing library : libebml v1.4.2 + libmatroska v1.6.4

  13. Video

  14. ID : 1

  15. Format : AVC

  16. Format/Info : Advanced Video Codec

  17. Format profile : High@L4.1

  18. Format settings : CABAC / 1 Ref Frames

  19. Format settings, CABAC : Yes

  20. Format settings, Reference frames : 1 frame

  21. Format settings, GOP : M=1, N=60

  22. Codec ID : V_MPEG4/ISO/AVC

  23. Duration : 1 h 58 min

  24. Bit rate mode : Constant

  25. Bit rate : 3 724 kb/s

  26. Nominal bit rate : 4 000 kb/s

  27. Width : 1 920 pixels

  28. Height : 1 080 pixels

  29. Display aspect ratio : 16:9

  30. Frame rate mode : Constant

  31. Frame rate : 29.970 (30000/1001/53354) FPS

  32. Color space : YUV

  33. Chroma subsampling : 4:2:0

  34. Bit depth : 8 bits

  35. Scan type : Progressive

  36. Bits/(Pixel*Frame) : 0.060

  37. Stream size : 3.07 GiB (97%)

  38. Default : Yes

  39. Forced : No

  40. Audio

  41. ID : 2

  42. Format : AAC LC

  43. Format/Info : Advanced Audio Codec Low Complexity

  44. Codec ID : A_AAC-2

  45. Duration : 1 h 58 min

  46. Bit rate : 125 kb/s

  47. Channel(s) : 2 channels

  48. Channel layout : L R

  49. Sampling rate : 48.0 kHz

  50. Frame rate : 46.875 FPS (1024 SPF)

  51. Compression mode : Lossy

  52. Stream size : 106 MiB (3%)

  53. Default : Yes

  54. Forced : No

  55. Text

  56. ID : 3

  57. Format : UTF-8

  58. Codec ID : S_TEXT/UTF8

  59. Codec ID/Info : UTF-8 Plain Text

  60. Duration : 1 h 53 min

  61. Bit rate : 23 b/s

  62. Count of elements : 757

  63. Stream size : 19.1 KiB (0%)

  64. Title : Traditional (SDH)

  65. Language : Chinese

  66. Default : No

  67. Forced : No


复制代码


TAGS 剧情 犯罪 /

磁力链:
  • magnet:?xt=urn:btih:B0547A0F9E6677834C52BB68938742EC7E226809
上传的附件:
BT9527电影天堂 1、BT9527电影天堂提供的BT文件均来源于互联网抓取,只供网友学习交流、技术提升使用。
2、我们遵守BitTorrent点对点协议原则,任何版权问题请联系原资源发布商,我们不处理任何版权纠纷,谢谢!如有争议请联系邮箱:BT9527#hotmail.com(#换成@)
3、如果您发现某页面或地址有错误,请联系站长邮箱BT9527#hotmail.com(#换成@),我们会尽快处理。您的热心是对BT9527电影天堂最大的支持。
4、本站建议去正规影院观看电影以支持电影行业发展。
最新回复 (0)

你可以在 登录 or 注册 后,对此帖发表评论!

返回
发新帖