驱魔人[简繁英字幕].The.Exorcist.1973.1080p.BluRay.DTS-HD.MA.5.1.x265-10bit-ENTHD 8.16GB

版主小s 6月前 366

◎译 名 驱魔人 / 大法师(台)

◎片 名 The Exorcist

◎年 代 1973

◎产 地 美国

◎类 别 恐怖

◎语 言 英语 / 拉丁语 / 希腊语 / 法语 / 德语 / 阿拉伯语 / 库尔德语

◎上映日期 1973-12-26

◎IMDb链接 https://www.imdb.com/title/tt0070047/

◎豆瓣评分 7.6/10 (68889人评价)

◎豆瓣链接 https://movie.douban.com/subject/1293755/

◎片 长 122 分钟

◎导 演 威廉·弗莱德金 William Friedkin (id:1049822)

◎编 剧 威廉·皮特·布拉蒂 William Peter Blatty (id:1014274)

◎演 员 艾伦·伯斯汀 Ellen Burstyn (id:1036407)

马克斯·冯·叙多夫 Max von Sydow (id:1002675)

李·科布 Lee J. Cobb (id:1036551)

吉蒂·温 Kitty Winn (id:1032403)

杰克·麦高恩 Jack MacGowran (id:1118141)

杰森·米勒 Jason Miller (id:1121202)

琳达·布莱尔 Linda Blair (id:1007024)

巴顿·海曼 Barton Heyman (id:1096173)

彼得·马斯特森 Peter Masterson (id:1018447)

鲁道夫·申德勒 Rudolf Schündler (id:1145107)

Gina Petrushka Gina Petrushka (id:1136900)

Robert Symonds Robert Symonds (id:1156190)

阿瑟·斯托奇 Arthur Storch (id:1156063)

Vasiliki Maliaros Vasiliki Maliaros (id:1119808)

蒂托斯·万迪 Titos Vandis (id:1155353)

约翰·马洪 John Mahon (id:1344080)

Wallace Rooney Wallace Rooney (id:1139304)

Ron Faber Ron Faber (id:1085621)

罗伊·库珀 Roy Cooper (id:1078340)

Robert Gerringer Robert Gerringer (id:1095999)

梅赛德丝·麦坎布雷奇 Mercedes McCambridge (id:1032121)

威廉·皮特·布拉蒂 William Peter Blatty (id:1014274)

玛丽·博伊兰 Mary Boylan (id:1076547)

Dick Callinan Dick Callinan (id:1069634)

梅森·科里 Mason Curry (id:1075923)

Toni Darnay Toni Darnay (id:1081017)

艾琳·迪茨 Eileen Dietz (id:1081971)

Joanne Dusseau Joanne Dusseau (id:1090057)

欧文·罗兹曼 Owen Roizman (id:1050597)

诺尔曼盖 Norman Gay (id:1284642)

茱莉叶·泰勒 Juliet Taylor (id:1299000)

比尔·马利 Bill Malley (id:1290813)

William A. Farley William A. Farley (id:1283448)

◎简 介

愁云惨淡的华盛顿市,一幢普通公寓内,单身妈妈克莉丝(艾伦·鲍斯汀 Ellen Burstyn 饰)和女儿芮根生活于此。然而近一段时间,克莉丝却被女儿种种怪异的举止折磨得烦躁不堪。芮根的行为举止怪异,迥异常人。克莉丝带她求医问卜,终无所获,甚至精神科医生也束手无策。万般无 奈之下,几近绝望的母亲求助于莫林神父(马克斯·冯·西多 Max von Sydow 饰),一个有着丰富驱魔经验的老者。恐怖的夜晚,神父与藏身少女体内的恶魔展开连番较量。这是一个注定让无数人永生难忘的恶魔之夜……

本片由William Batty根据1949年一起真实的驱魔事件创作的小说改编,荣获奥斯卡金像奖最佳混音奖和最佳改编剧本奖。

◎获奖情况 (共10项)

第46届奥斯卡金像奖 (1974)

最佳影片(提名)

└──威廉·皮特·布拉蒂 (id:1014274)

最佳导演(提名)

└──威廉·弗莱德金 (id:1049822)

最佳女主角(提名)

└──艾伦·伯斯汀 (id:1036407)

最佳男配角(提名)

└──杰森·米勒 (id:1121202)

最佳女配角(提名)

└──琳达·布莱尔 (id:1007024)

最佳改编剧本

└──威廉·皮特·布拉蒂 (id:1014274)

最佳摄影(提名)

└──欧文·罗兹曼 (id:1050597)

最佳剪辑(提名)

最佳音响

最佳艺术指导(提名)

  1. ##### MediaInfo ######

  2. General

  3. Unique ID : 93372834857610863478777317202044544319 (0x463EF43076133FA8AF6149F74DC2653F)

  4. Complete name : The.Exorcist.1973.1080p.BluRay.DTS-HD.MA.5.1.x265-10bit-ENTHD.mkv

  5. Format : Matroska

  6. Format version : Version 4

  7. File size : 8.16 GiB

  8. Duration : 2 h 12 min

  9. Overall bit rate : 8 824 kb/s

  10. Movie name : The Exorcist 1973 1080p BluRay DTS-HD MA 5.1 x265-10bit-HDS

  11. Encoded date : UTC 2022-05-30 02:44:58

  12. Writing application : mkvmerge v67.0.0 ('Under Stars') 64-bit

  13. Writing library : libebml v1.4.2 + libmatroska v1.6.4

  14. Video

  15. ID : 1

  16. Format : HEVC

  17. Format/Info : High Efficiency Video Coding

  18. Format profile : Main 10@L5.1@High

  19. Codec ID : V_MPEGH/ISO/HEVC

  20. Duration : 2 h 12 min

  21. Bit rate : 7 265 kb/s

  22. Width : 1 920 pixels

  23. Height : 1 080 pixels

  24. Display aspect ratio : 16:9

  25. Frame rate mode : Constant

  26. Frame rate : 23.976 (24000/1001/53354) FPS

  27. Color space : YUV

  28. Chroma subsampling : 4:2:0

  29. Bit depth : 10 bits

  30. Bits/(Pixel*Frame) : 0.146

  31. Stream size : 6.72 GiB (82%)

  32. Title : meyu@HDSky

  33. Writing library : x265 - H.265/HEVC codec

  34. Default : Yes

  35. Forced : No

  36. Audio

  37. ID : 2

  38. Format : DTS ES

  39. Format/Info : Digital Theater Systems

  40. Commercial name : DTS-ES Matrix

  41. Codec ID : A_DTS

  42. Duration : 2 h 12 min

  43. Bit rate mode : Constant

  44. Bit rate : 1 509 kb/s

  45. Channel(s) : 6 channels

  46. Channel(s)_Original : 7 channels

  47. ChannelLayout_Original : C L R Ls Rs Cs LFE

  48. Sampling rate : 48.0 kHz

  49. Frame rate : 93.750 FPS (512 SPF)

  50. Bit depth : 24 bits

  51. Compression mode : Lossy

  52. Stream size : 1.40 GiB (17%)

  53. Title : English

  54. Language : English

  55. Default : Yes

  56. Forced : No

  57. Text #1

  58. ID : 3

  59. Format : PGS

  60. Muxing mode : zlib

  61. Codec ID : S_HDMV/PGS

  62. Codec ID/Info : Picture based subtitle format used on BDs/HD-DVDs

  63. Duration : 2 h 8 min

  64. Bit rate : 33.8 kb/s

  65. Count of elements : 2644

  66. Stream size : 30.9 MiB (0%)

  67. Title : CHS&ENG

  68. Language : Chinese

  69. Default : Yes

  70. Forced : No

  71. Text #2

  72. ID : 4

  73. Format : PGS

  74. Muxing mode : zlib

  75. Codec ID : S_HDMV/PGS

  76. Codec ID/Info : Picture based subtitle format used on BDs/HD-DVDs

  77. Duration : 2 h 8 min

  78. Bit rate : 34.4 kb/s

  79. Count of elements : 2644

  80. Stream size : 31.6 MiB (0%)

  81. Title : CHT&ENG

  82. Language : Chinese

  83. Default : Yes

  84. Forced : No

  85. Text #3

  86. ID : 5

  87. Format : PGS

  88. Muxing mode : zlib

  89. Codec ID : S_HDMV/PGS

  90. Codec ID/Info : Picture based subtitle format used on BDs/HD-DVDs

  91. Duration : 2 h 10 min

  92. Bit rate : 29.9 kb/s

  93. Count of elements : 2984

  94. Stream size : 27.8 MiB (0%)

  95. Title : ENG

  96. Language : English

  97. Default : Yes

  98. Forced : No

  99. Menu

  100. 00:00:00.000 : en:第 01 章

  101. 00:04:19.676 : en:第 02 章

  102. 00:08:46.609 : en:第 03 章

  103. 00:10:30.380 : en:第 04 章

  104. 00:13:04.784 : en:第 05 章

  105. 00:15:00.483 : en:第 06 章

  106. 00:16:14.432 : en:第 07 章

  107. 00:17:44.438 : en:第 08 章

  108. 00:22:10.412 : en:第 09 章

  109. 00:23:37.374 : en:第 10 章

  110. 00:25:56.346 : en:第 11 章

  111. 00:27:52.504 : en:第 12 章

  112. 00:31:06.073 : en:第 13 章

  113. 00:32:15.517 : en:第 14 章

  114. 00:36:40.532 : en:第 15 章

  115. 00:39:16.062 : en:第 16 章

  116. 00:41:16.140 : en:第 17 章

  117. 00:43:34.779 : en:第 18 章

  118. 00:44:48.352 : en:第 19 章

  119. 00:47:50.659 : en:第 20 章

  120. 00:52:14.465 : en:第 21 章

  121. 00:54:16.795 : en:第 22 章

  122. 00:57:42.417 : en:第 23 章

  123. 01:01:02.492 : en:第 24 章

  124. 01:02:54.145 : en:第 25 章

  125. 01:08:07.083 : en:第 26 章

  126. 01:10:32.228 : en:第 27 章

  127. 01:13:05.423 : en:第 28 章

  128. 01:17:57.256 : en:第 29 章

  129. 01:19:33.686 : en:第 30 章

  130. 01:23:39.598 : en:第 31 章

  131. 01:25:55.317 : en:第 32 章

  132. 01:29:12.430 : en:第 33 章

  133. 01:32:56.821 : en:第 34 章

  134. 01:35:31.476 : en:第 35 章

  135. 01:36:41.462 : en:第 36 章

  136. 01:37:50.698 : en:第 37 章

  137. 01:39:44.979 : en:第 38 章

  138. 01:42:55.127 : en:第 39 章

  139. 01:44:19.462 : en:第 40 章

  140. 01:50:13.440 : en:第 41 章

  141. 01:53:54.536 : en:第 42 章

  142. 01:57:36.466 : en:第 43 章

  143. 02:00:59.919 : en:第 44 章

  144. 02:02:21.000 : en:第 45 章

  145. 02:03:06.588 : en:第 46 章

  146. 02:06:40.968 : en:第 47 章

  147. 02:08:05.595 : en:第 48 章


复制代码


TAGS 恐怖

磁力链:
  • magnet:?xt=urn:btih:2D22F3E82DA99912C32F875B117EAA39A9B1C80A
上传的附件:
BT9527电影天堂 1、BT9527电影天堂提供的BT文件均来源于互联网抓取,只供网友学习交流、技术提升使用。
2、我们遵守BitTorrent点对点协议原则,任何版权问题请联系原资源发布商,我们不处理任何版权纠纷,谢谢!如有争议请联系邮箱:BT9527#hotmail.com(#换成@)
3、如果您发现某页面或地址有错误,请联系站长邮箱BT9527#hotmail.com(#换成@),我们会尽快处理。您的热心是对BT9527电影天堂最大的支持。
4、本站建议去正规影院观看电影以支持电影行业发展。
最新回复 (0)

你可以在 登录 or 注册 后,对此帖发表评论!

返回
发新帖