圣殇[中文字幕].Pieta.2012.1080p.WEB-DL.AAC.2.0.H.264-CTRLWEB 2.82GB

版主小s 6月前 818

◎译 名 圣殇 / 圣母怜子图 / 母与子 / 施恩 / Pieta

◎片 名 ???

◎年 代 2012

◎产 地 韩国

◎类 别 剧情

◎语 言 韩语

◎上映日期 2012-09-04(威尼斯电影节) / 2012-09-06(韩国)

◎IMDb链接 https://www.imdb.com/title/tt2299842/

◎豆瓣评分 7.8/10 (59720人评价)

◎豆瓣链接 https://movie.douban.com/subject/10487226/

◎片 长 103分钟

◎导 演 金基德 Ki-duk Kim (id:1031241)

◎编 剧 金基德 Ki-duk Kim (id:1031241)

◎演 员 李廷镇 Jeong-jin Lee (id:1020367)

赵敏修 Min-su Jo (id:1316408)

伍基洪 Ki-Hong Woo (id:1329943)

姜恩珍 Eunjin Kang (id:1328889)

权律 Yool Kwan (id:1315057)

许俊硕 Jun-seok Heo (id:1348081)

孙钟学 Jong-Hak Son (id:1350939)

陈庸旭 Jin Yong-wook (id:1381296)

刘河福 Ha-bok Yoo (id:1376443)

赵载龙 Jae-ryong Jo (id:1375772)

金在祿 Jae-rok Kim (id:1387386)

宋文洙 Moon-Soo Song (id:1448111)

金基德 Ki-duk Kim (id:1031241)

朴仁英 Inyoung Park (id:1464539)

金基德 Ki-duk Kim (id:1031241)

文诗娴 Si-Hyun Moon (id:1333937)

◎简 介

本片荣获第69届威尼斯电影节最高奖金狮奖,是金基德的第18部电影。

李江道(李廷镇 饰)是一个十恶不赦的高利贷收账者,他没有家人,也没有恋人,生活的重心就是每天上门向欠债人讨债。他生性冷酷,手段残忍,常常用暴力威胁对方,甚至还把欠债人人打成残废。那些被江道追讨过债务的家庭,从此都过上了丧失尊严的破碎生活。可是突然有一天,一个名叫江美善(赵敏秀 饰)的中年妇女来到了江道的面前,并声称自己就是他的亲生母亲,而江道就是自己那个走失已久的儿子。渴望亲情的江道在半信半疑之下和这个女人开始了一段特殊的“母子关系”。渐渐品尝到亲情温暖的江道却不知道,一场阴谋正等待着他......

◎获奖情况 (共24项)

第69届威尼斯电影节 (2012)

金狮奖

└──金基德 (id:1031241)

小金狮奖

└──金基德 (id:1031241)

纳萨雷诺塔代伊奖

└──金基德 (id:1031241)

金鼠奖

└──金基德 (id:1031241)

第7届亚洲电影大奖 (2013)

我最喜爱的男女主角 我最喜爱的女主角

└──赵敏修 (id:1316408)

最佳电影(提名)

最佳导演(提名)

└──金基德 (id:1031241)

最佳女主角(提名)

└──赵敏修 (id:1316408)

第49届百想艺术大赏 (2013)

电影类 最佳影片(提名)

└──金基德 (id:1031241)

电影类 最佳导演(提名)

└──金基德 (id:1031241)

电影类 最佳女主角(提名)

└──赵敏修 (id:1316408)

电影类 最佳人气女演员(提名)

└──赵敏修 (id:1316408)

第49届韩国电影大钟奖 (2012)

最佳影片(提名)

最佳导演(提名)

└──金基德 (id:1031241)

最佳女主角

└──赵敏修 (id:1316408)

最佳女配角(提名)

└──姜恩珍 (id:1328889)

最佳新人男演员(提名)

└──伍基洪 (id:1329943)

最佳新人女演员(提名)

└──姜恩珍 (id:1328889)

评委会特别奖

└──金基德 (id:1031241)

第17届金卫星奖 (2012)

电影部门 最佳导演(提名)

└──金基德 (id:1031241)

电影部门 最佳外语片

电影部门 最佳原创剧本(提名)

└──金基德 (id:1031241)

第3届豆瓣电影鑫像奖 (2013)

鑫豆单元 最佳导演(外语)(提名)

└──金基德 (id:1031241)

鑫豆单元 最佳落选影片(提名)

  1. ##### MediaInfo ######

  2. General

  3. Unique ID : 205027472752671710175717016947107729608 (0x9A3EDADC037A2D2882F5AA3AAA6690C8)

  4. Complete name : Pieta.2012.1080p.WEB-DL.AAC.2.0.H.264-CTRLWEB.mkv

  5. Format : Matroska

  6. Format version : Version 4

  7. File size : 2.82 GiB

  8. Duration : 1 h 43 min

  9. Overall bit rate : 3 883 kb/s

  10. Encoded date : UTC 2022-05-26 05:19:09

  11. Writing application : mkvmerge v65.0.0 ('Too Much') 64-bit

  12. Writing library : libebml v1.4.2 + libmatroska v1.6.4

  13. Video

  14. ID : 1

  15. Format : AVC

  16. Format/Info : Advanced Video Codec

  17. Format profile : High@L4.1

  18. Format settings : CABAC / 1 Ref Frames

  19. Format settings, CABAC : Yes

  20. Format settings, Reference frames : 1 frame

  21. Format settings, GOP : M=1, N=60

  22. Codec ID : V_MPEG4/ISO/AVC

  23. Duration : 1 h 43 min

  24. Bit rate mode : Constant

  25. Bit rate : 3 755 kb/s

  26. Nominal bit rate : 4 000 kb/s

  27. Width : 1 920 pixels

  28. Height : 1 080 pixels

  29. Display aspect ratio : 16:9

  30. Frame rate mode : Constant

  31. Frame rate : 29.970 (30000/1001/53354) FPS

  32. Color space : YUV

  33. Chroma subsampling : 4:2:0

  34. Bit depth : 8 bits

  35. Scan type : Progressive

  36. Bits/(Pixel*Frame) : 0.060

  37. Stream size : 2.72 GiB (97%)

  38. Default : Yes

  39. Forced : No

  40. Audio

  41. ID : 2

  42. Format : AAC LC

  43. Format/Info : Advanced Audio Codec Low Complexity

  44. Codec ID : A_AAC-2

  45. Duration : 1 h 43 min

  46. Bit rate : 125 kb/s

  47. Channel(s) : 2 channels

  48. Channel layout : L R

  49. Sampling rate : 48.0 kHz

  50. Frame rate : 46.875 FPS (1024 SPF)

  51. Compression mode : Lossy

  52. Stream size : 93.2 MiB (3%)

  53. Default : Yes

  54. Forced : No

  55. Text

  56. ID : 3

  57. Format : UTF-8

  58. Codec ID : S_TEXT/UTF8

  59. Codec ID/Info : UTF-8 Plain Text

  60. Duration : 1 h 34 min

  61. Bit rate : 16 b/s

  62. Count of elements : 581

  63. Stream size : 11.4 KiB (0%)

  64. Title : Traditional (SDH)

  65. Language : Chinese

  66. Default : No

  67. Forced : No


复制代码


TAGS 剧情

磁力链:
  • magnet:?xt=urn:btih:97F04408FDC39894AFDCC238D1F88C89C1CA338E
上传的附件:
BT9527电影天堂 1、BT9527电影天堂提供的BT文件均来源于互联网抓取,只供网友学习交流、技术提升使用。
2、我们遵守BitTorrent点对点协议原则,任何版权问题请联系原资源发布商,我们不处理任何版权纠纷,谢谢!如有争议请联系邮箱:BT9527#hotmail.com(#换成@)
3、如果您发现某页面或地址有错误,请联系站长邮箱BT9527#hotmail.com(#换成@),我们会尽快处理。您的热心是对BT9527电影天堂最大的支持。
4、本站建议去正规影院观看电影以支持电影行业发展。
最新回复 (0)

你可以在 登录 or 注册 后,对此帖发表评论!

返回
发新帖