密探[中英字幕].The.Age.of.Shadows.2016.BluRay.1080p.x265.10bit-MiniHD 4.17GB

版主小s 6月前 588

◎译 名 密探 / 密侦 / 秘密间谍 / The Age of Shadows / Mil-jeong

◎片 名 ??

◎年 代 2016

◎产 地 韩国

◎类 别 剧情 / 动作 / 惊悚

◎语 言 韩语 / 日语 / 汉语普通话 / 英语

◎上映日期 2016-09-03(威尼斯电影节) / 2016-09-07(韩国)

◎IMDb链接 https://www.imdb.com/title/tt4914580/

◎豆瓣评分 6.7/10 (14391人评价)

◎豆瓣链接 https://movie.douban.com/subject/26374671/

◎片 长 140分钟

◎导 演 金知云 Jee-woon Kim (id:1018200)

◎编 剧 金知云 Jee-woon Kim (id:1018200)

朴钟泰 Jong-dae Park (id:1384492)

李智敏 Ji-min Lee (id:1384493)

◎演 员 宋康昊 Kang-ho Song (id:1031238)

孔刘 Yoo Gong (id:1011009)

韩智敏 Ji-min Han (id:1042315)

严泰九 Tae-goo Eom (id:1345798)

申成禄 Sung-rok Shin (id:1324616)

李秉宪 Byung-hun Lee (id:1105108)

李尚熙 Sang-hee Lee (id:1365338)

元真儿 Jin-ah Won (id:1378893)

全余赟 Jeon Yeo-bin (id:1378641)

周锡泰 Suk-tae Joo (id:1375770)

吴荷妮 Ha-nee Oh (id:1378900)

郑惟安 Yoo-ahn Jung (id:1387701)

许成泰 Seong-tae Heo (id:1374577)

高俊 Go Joon (id:1377048)

玉子妍 Ja-yeon Ok (id:1383972)

韩秀妍 Su-yeon Han (id:1348944)

崔有华 Yu-hwa Choi (id:1377875)

白仁权 In-Kwon Baek (id:1375758)

郑道元 Do-won Jung (id:1385927)

许亨圭 Hyung-kyu Heo (id:1382594)

李率求 Seol-goo Lee (id:1378878)

南文哲 Moon-cheol Nam (id:1381309)

白基善 Gi Seon Bak (id:1385921)

刘尚宰 Sang-jae Yoo (id:1385486)

杨明宪 Yang Myeong-heon (id:1387075)

崔熙道 Choi Hee-do (id:1388038)

赵河硕 Ha-suk Jo (id:1392045)

金文学 Moon-hak Kim (id:1398062)

金泰俊 Tae-joon Kim (id:1399054)

洪仁 Hong In (id:1398063)

Ee-geon Kim Ee-geon Kim (id:1398061)

Ma-ro Choi Ma-ro Choi (id:1398052)

(id:1398050)

郭子亨 Ja-hyeong Kwak (id:1392654)

李焕 Lee Hwan (id:1373045)

权秀贤 Soo-hyun Kwon (id:1381035)

鹤见辰吾 Shingo Tsurumi (id:1017055)

郭民浩 Kwak Min-ho (id:1447551)

郑美南 Mi-nam Jeong (id:1425290)

李圣贤 Mowg (id:1329977)

金智龙 Ji-yong Kim (id:1328079)

◎简 介

风起云涌的20世纪20年代,整个世界都笼罩在一场巨大的风暴之中。风云突变的京城,来自各国的势力碰撞角逐,危机一触即发。朝鲜人出身的日本警察李政出(宋康昊 饰)深得老奸巨猾的日本警务局部长东村(鹤见辰吾 饰)的器重,在一次追查义烈团的行动中,曾经的同事金长玉自杀,随后李政出成为了寻找义烈团领导人的急先锋。通过细心排查,李找到了金优进(孔刘 饰)所经营的古董店,而金恰恰是义烈团的干部。最近一段时间,义烈团策划将一批炸药通过火车从上海运往京城,计划炸掉日本警察局。金优进大胆将李政出引荐给义烈团团长郑彩山(李秉宪 饰),希望策反这个朝鲜人,帮助他们完成计划。无论如何,良心未泯的李政出被绑上了一条危机重重的小船,他不得不作出抉择……

本片荣获第36届韩国影评奖最佳作品奖。

◎获奖情况 (共29项)

第37届韩国电影青龙奖 (2016)

最佳影片(提名)

└──金知云 (id:1018200)

最佳导演(提名)

└──金知云 (id:1018200)

最佳男主角(提名)

└──宋康昊 (id:1031238)

最佳男配角(提名)

└──严泰九 (id:1345798)

最佳美术(提名)

最佳配乐(提名)

最佳照明(提名)

第11届亚洲电影大奖 (2017)

最佳电影(提名)

最佳摄影(提名)

└──金智龙 (id:1328079)

最佳原创音乐

└──李圣贤 (id:1329977)

第53届百想艺术大赏 (2017)

电影类 最佳影片(提名)

└──金知云 (id:1018200)

电影类 最佳导演

└──金知云 (id:1018200)

电影类 最佳男主角

└──宋康昊 (id:1031238)

电影类 最佳男配角(提名)

└──严泰九 (id:1345798)

电影类 最佳女配角(提名)

└──韩智敏 (id:1042315)

电影类 最佳编剧(提名)

第53届韩国电影大钟奖 (2016)

最佳影片(提名)

最佳导演(提名)

└──金知云 (id:1018200)

最佳男主角(提名)

└──宋康昊 (id:1031238)

最佳男配角

└──严泰九 (id:1345798)

最佳女配角(提名)

└──韩智敏 (id:1042315)

最佳剧本(提名)

└──金知云 (id:1018200)

最佳摄影(提名)

└──金智龙 (id:1328079)

最佳剪辑(提名)

最佳美术

最佳音乐(提名)

最佳服装(提名)

最佳录音(提名)

最佳照明(提名)

  1. ##### MediaInfo ######

  2. General

  3. Unique ID : 216198407667044264107038838631881075614 (0xA2A64C7945E6DE8BA27BC2DC18A16B9E)

  4. Complete name : The.Age.of.Shadows.2016.BluRay.1080p.x265.10bit-MiniHD.mkv

  5. Format : Matroska

  6. Format version : Version 4

  7. File size : 4.17 GiB

  8. Duration : 2 h 20 min

  9. Overall bit rate : 4 242 kb/s

  10. Encoded date : UTC 2017-04-19 02:04:43

  11. Writing application : mkvmerge v9.7.1 ('Pandemonium') 64bit

  12. Writing library : libebml v1.3.4 + libmatroska v1.4.5

  13. Video

  14. ID : 1

  15. Format : HEVC

  16. Format/Info : High Efficiency Video Coding

  17. Format profile : Main 10@L4@Main

  18. Codec ID : V_MPEGH/ISO/HEVC

  19. Duration : 2 h 20 min

  20. Bit rate : 3 517 kb/s

  21. Width : 1 920 pixels

  22. Height : 804 pixels

  23. Display aspect ratio : 2.40:1

  24. Frame rate mode : Constant

  25. Frame rate : 23.976 (24000/1001/53354) FPS

  26. Color space : YUV

  27. Chroma subsampling : 4:2:0

  28. Bit depth : 10 bits

  29. Bits/(Pixel*Frame) : 0.095

  30. Stream size : 3.46 GiB (83%)

  31. Writing library : x265 2.3+32-1ed218717877:[Windows][GCC 6.3.0][64 bit] 10bit

  32. Encoding settings : cpuid=533541173503 / frame-threads=6 / numa-pools=36 / wpp / no-pmode / no-pme / no-psnr / no-ssim / log-level=2 / input-csp=1 / input-res=1920x804 / interlace=0 / total-frames=202454 / level-idc=0 / high-tier=1 / uhd-bd=0 / ref=5 / no-allow-non-conformance / no-repeat-headers / annexb / no-aud / no-hrd / info / hash=0 / no-temporal-layers / no-open-gop / min-keyint=1 / keyint=360 / bframes=8 / b-adapt=2 / b-pyramid / bframe-bias=0 / rc-lookahead=60 / lookahead-slices=4 / NTMzNTQ=uuDQuD2mJt9fsCf / scenecut=40 / no-intra-refresh / ctu=32 / min-cu-size=8 / rect / no-amp / max-tu-size=16 / tu-inter-depth=2 / tu-intra-depth=2 / limit-tu=4 / rdoq-level=2 / dynamic-rd=0.00 / ssim-rd / signhide / no-tskip / nr-intra=0 / nr-inter=0 / no-constrained-intra / no-strong-intra-smoothing / max-merge=3 / limit-refs=1 / limit-modes / me=3 / subme=5 / merange=25 / temporal-mvp / weightp / weightb / no-analyze-src-pics / deblock=-1:-1 / no-sao / no-sao-non-deblock / rd=4 / no-early-skip / rskip / no-fast-intra / no-tskip-fast / no-cu-lossless / b-intra / rdpenalty=1 / psy-rd=0.00 / psy-rdoq=5.00 / no-rd-refine / analysis-mode=0 / no-lossless / cbqpoffs=-2 / crqpoffs=-2 / rc=crf / crf=18.0 / qcomp=0.70 / qpstep=4 / stats-write=0 / stats-read=0 / ipratio=1.40 / pbratio=1.30 / aq-mode=3 / aq-strength=0.80 / cutree / zone-count=0 / no-strict-cbr / qg-size=16 / no-rc-grain / qpmax=69 / qpmin=0 / sar=0 / overscan=0 / videoformat=5 / range=0 / colorprim=1 / transfer=2 / colormatrix=2 / chromaloc=0 / display-window=0 / max-cll=0,0 / min-luma=0 / max-luma=1023 / log2-max-poc-lsb=8 / vui-timing-info / vui-hrd-info / slices=1 / opt-qp-pps / opt-ref-list-length-pps / no-multi-pass-opt-rps / scenecut-bias=0.05 / no-opt-cu-delta-qp / no-aq-motion / no-hdr / no-hdr-opt / refine-level=5 / no-limit-sao

  33. Default : Yes

  34. Forced : No

  35. Color range : Limited

  36. Color primaries : BT.709

  37. Audio

  38. ID : 2

  39. Format : AC-3

  40. Format/Info : Audio Coding 3

  41. Commercial name : Dolby Digital

  42. Codec ID : A_AC3

  43. Duration : 2 h 20 min

  44. Bit rate mode : Constant

  45. Bit rate : 640 kb/s

  46. Channel(s) : 6 channels

  47. Channel layout : L R C LFE Ls Rs

  48. Sampling rate : 48.0 kHz

  49. Frame rate : 31.250 FPS (1536 SPF)

  50. Compression mode : Lossy

  51. Stream size : 644 MiB (15%)

  52. Language : Korean

  53. Service kind : Complete Main

  54. Default : Yes

  55. Forced : No

  56. Text #1

  57. ID : 3

  58. Format : PGS

  59. Muxing mode : zlib

  60. Codec ID : S_HDMV/PGS

  61. Codec ID/Info : Picture based subtitle format used on BDs/HD-DVDs

  62. Language : Chinese

  63. Default : Yes

  64. Forced : No

  65. Text #2

  66. ID : 4

  67. Format : PGS

  68. Muxing mode : zlib

  69. Codec ID : S_HDMV/PGS

  70. Codec ID/Info : Picture based subtitle format used on BDs/HD-DVDs

  71. Language : Chinese

  72. Default : No

  73. Forced : No

  74. Text #3

  75. ID : 5

  76. Format : PGS

  77. Muxing mode : zlib

  78. Codec ID : S_HDMV/PGS

  79. Codec ID/Info : Picture based subtitle format used on BDs/HD-DVDs

  80. Language : English

  81. Default : No

  82. Forced : No

  83. Menu

  84. 00:00:00.000 : en:Chapter 01

  85. 00:12:23.159 : en:Chapter 02

  86. 00:19:22.911 : en:Chapter 03

  87. 00:25:13.595 : en:Chapter 04

  88. 00:35:21.494 : en:Chapter 05

  89. 00:49:13.116 : en:Chapter 06

  90. 00:59:53.089 : en:Chapter 07

  91. 01:08:42.368 : en:Chapter 08

  92. 01:18:15.732 : en:Chapter 09

  93. 01:32:29.627 : en:Chapter 10

  94. 01:39:12.363 : en:Chapter 11

  95. 01:48:47.270 : en:Chapter 12

  96. 02:00:13.497 : en:Chapter 13

  97. 02:12:56.885 : en:Chapter 14

  98. 02:20:43.017 : en:Chapter 15


复制代码


TAGS 动作 剧情 惊悚 /

磁力链:
  • magnet:?xt=urn:btih:0AFDBBA2F461E922D0F062400EED23168AB59F0A
上传的附件:
BT9527电影天堂 1、BT9527电影天堂提供的BT文件均来源于互联网抓取,只供网友学习交流、技术提升使用。
2、我们遵守BitTorrent点对点协议原则,任何版权问题请联系原资源发布商,我们不处理任何版权纠纷,谢谢!如有争议请联系邮箱:BT9527#hotmail.com(#换成@)
3、如果您发现某页面或地址有错误,请联系站长邮箱BT9527#hotmail.com(#换成@),我们会尽快处理。您的热心是对BT9527电影天堂最大的支持。
4、本站建议去正规影院观看电影以支持电影行业发展。
最新回复 (0)

你可以在 登录 or 注册 后,对此帖发表评论!

返回
发新帖