小鞋子[国语音轨/中文字幕].Children.of.Heaven.1997.BluRay.1080p.x265.10bit.2Audio-MiniHD 5.91GB

版主小s 6月前 871

◎译 名 小鞋子 / 天堂的孩子 / 小童鞋 / Children of Heaven / Bacheha-Ye aseman / ?????? ?????

◎片 名 ??? ??? ?????

◎年 代 1997

◎产 地 伊朗

◎类 别 剧情 / 家庭 / 儿童

◎语 言 波斯语

◎上映日期 1997-02-01(曙光旬国际电影节) / 1999-01-22(美国)

◎IMDb链接 https://www.imdb.com/title/tt0118849/

◎豆瓣评分 9.2/10 (372588人评价)

◎豆瓣链接 https://movie.douban.com/subject/1303021/

◎片 长 89分钟

◎导 演 马基德·马基迪 Majid Majidi (id:1275039)

◎编 剧 马基德·马基迪 Majid Majidi (id:1275039)

◎演 员 默罕默德·阿米尔·纳吉 Mohammad Amir Naji (id:1275084)

法拉赫阿米尔·哈什米安 Amir Farrokh Hashemian (id:1331041)

巴哈丽·西迪奇 Bahare Seddiqi (id:1328828)

纳菲丝·贾法-穆罕默迪 Nafise Jafar-Mohammadi (id:1344049)

费雷什特·萨拉班迪 Fereshte Sarabandi (id:1344048)

Dariush Mokhtari Dariush Mokhtari (id:1344047)

克里斯托弗·马利基 Christopher Maleki (id:1120483)

少爷占 Jim (id:1356344)

哈桑·哈桑杜斯 Hassan Hassandoost (id:1286200)

◎简 介

家境贫寒的男孩Ali(Amir Farrokh Hashemian)帮妹妹Zahra(Bahare Seddiqi)取修补好的鞋子时,不慎将鞋子弄丢,为了不被父(Mohammad Amir Naji)、母(Fereshte Sarabandi )责罚,他央求Zahra暂时保密,说两人可以替换着穿他的鞋子上学,并答应一定会帮她买双新鞋子。

Ali原本指望用他和父亲进城打工挣的钱帮Zahra买双新鞋,父亲的意外受伤打消了他的美梦。看到全市长跑比赛季军的奖品是一双运动鞋时,Ali决定参加比赛,但是他错过了报名日期。几经哀求,老师(Dariush Mokhtari )破例让实力出众的Ali参加了比赛。比赛场上,Ali不断提醒自己,一定要得第三名!

◎获奖情况 (共1项)

第71届奥斯卡金像奖 (1999)

最佳外语片(提名)

└──马基德·马基迪 (id:1275039)

  1. ##### MediaInfo ######

  2. General

  3. Unique ID : 210105276777938963905072860583604139639 (0x9E10CDED4AC6F913AB08D512DA3E3677)

  4. Complete name : Children.of.Heaven.1997.BluRay.1080p.x265.10bit.2Audio-MiniHD.mkv

  5. Format : Matroska

  6. Format version : Version 4

  7. File size : 5.90 GiB

  8. Duration : 1 h 27 min

  9. Overall bit rate : 9 611 kb/s

  10. Encoded date : UTC 2017-07-31 08:17:14

  11. Writing application : mkvmerge v11.0.0 ('Alive') 64bit

  12. Writing library : libebml v1.3.4 + libmatroska v1.4.5

  13. Video

  14. ID : 1

  15. Format : HEVC

  16. Format/Info : High Efficiency Video Coding

  17. Codec ID : V_MPEGH/ISO/HEVC

  18. Duration : 1 h 27 min

  19. Bit rate : 8 908 kb/s

  20. Width : 1 920 pixels

  21. Height : 1 080 pixels

  22. Display aspect ratio : 16:9

  23. Frame rate mode : Constant

  24. Frame rate : 23.976 (24000/1001/53354) FPS

  25. Bits/(Pixel*Frame) : 0.179

  26. Stream size : 5.47 GiB (93%)

  27. Default : Yes

  28. Forced : No

  29. Audio #1

  30. ID : 2

  31. Format : AC-3

  32. Format/Info : Audio Coding 3

  33. Commercial name : Dolby Digital

  34. Codec ID : A_AC3

  35. Duration : 1 h 27 min

  36. Bit rate mode : Constant

  37. Bit rate : 320 kb/s

  38. Channel(s) : 2 channels

  39. Channel layout : L R

  40. Sampling rate : 48.0 kHz

  41. Frame rate : 31.250 FPS (1536 SPF)

  42. Compression mode : Lossy

  43. Stream size : 201 MiB (3%)

  44. Language : Persian

  45. Service kind : Complete Main

  46. Default : Yes

  47. Forced : No

  48. Audio #2

  49. ID : 3

  50. Format : AC-3

  51. Format/Info : Audio Coding 3

  52. Commercial name : Dolby Digital

  53. Codec ID : A_AC3

  54. Duration : 1 h 27 min

  55. Bit rate mode : Constant

  56. Bit rate : 192 kb/s

  57. Channel(s) : 2 channels

  58. Channel layout : L R

  59. Sampling rate : 48.0 kHz

  60. Frame rate : 31.250 FPS (1536 SPF)

  61. Compression mode : Lossy

  62. Stream size : 121 MiB (2%)

  63. Language : Chinese

  64. Service kind : Complete Main

  65. Default : No

  66. Forced : No

  67. Text #1

  68. ID : 4

  69. Format : PGS

  70. Muxing mode : zlib

  71. Codec ID : S_HDMV/PGS

  72. Codec ID/Info : Picture based subtitle format used on BDs/HD-DVDs

  73. Language : Chinese

  74. Default : Yes

  75. Forced : No

  76. Text #2

  77. ID : 5

  78. Format : PGS

  79. Muxing mode : zlib

  80. Codec ID : S_HDMV/PGS

  81. Codec ID/Info : Picture based subtitle format used on BDs/HD-DVDs

  82. Language : Chinese

  83. Default : No

  84. Forced : No

  85. Menu

  86. 00:00:00.000 : en:Chapter 01

  87. 00:03:13.760 : en:Chapter 02

  88. 00:08:08.054 : en:Chapter 03

  89. 00:11:37.930 : en:Chapter 04

  90. 00:16:07.700 : en:Chapter 05

  91. 00:18:28.440 : en:Chapter 06

  92. 00:20:49.047 : en:Chapter 07

  93. 00:24:52.891 : en:Chapter 08

  94. 00:27:06.191 : en:Chapter 09

  95. 00:30:32.564 : en:Chapter 10

  96. 00:33:51.963 : en:Chapter 11

  97. 00:36:33.457 : en:Chapter 12

  98. 00:42:12.930 : en:Chapter 13

  99. 00:47:05.055 : en:Chapter 14

  100. 00:53:01.578 : en:Chapter 15

  101. 00:57:44.794 : en:Chapter 16

  102. 01:00:55.385 : en:Chapter 17

  103. 01:03:43.152 : en:Chapter 18

  104. 01:07:04.854 : en:Chapter 19

  105. 01:10:05.200 : en:Chapter 20

  106. 01:12:42.358 : en:Chapter 21

  107. 01:16:43.432 : en:Chapter 22

  108. 01:22:15.297 : en:Chapter 23

  109. 01:25:17.979 : en:Chapter 24


复制代码


TAGS 剧情 家庭 / 儿童

磁力链:
  • magnet:?xt=urn:btih:718276A8D55007FE125EA866A615E07F18A52B62
上传的附件:
BT9527电影天堂 1、BT9527电影天堂提供的BT文件均来源于互联网抓取,只供网友学习交流、技术提升使用。
2、我们遵守BitTorrent点对点协议原则,任何版权问题请联系原资源发布商,我们不处理任何版权纠纷,谢谢!如有争议请联系邮箱:BT9527#hotmail.com(#换成@)
3、如果您发现某页面或地址有错误,请联系站长邮箱BT9527#hotmail.com(#换成@),我们会尽快处理。您的热心是对BT9527电影天堂最大的支持。
4、本站建议去正规影院观看电影以支持电影行业发展。
最新回复 (0)

你可以在 登录 or 注册 后,对此帖发表评论!

返回
发新帖