少数派报告[国英多音轨/中英字幕].Minority.Report.2002.BluRay.1080p.x265.10bit.2Audio-MiniHD 10.03GB

版主小s 6月前 324

◎译 名 少数派报告 / 关键报告(台) / 未来报告(港)

◎片 名 Minority Report

◎年 代 2002

◎产 地 美国

◎类 别 科幻 / 惊悚 / 犯罪

◎语 言 英语 / 瑞典语

◎上映日期 2002-06-21(美国)

◎IMDb链接 https://www.imdb.com/title/tt0181689/

◎豆瓣评分 7.8/10 (155205人评价)

◎豆瓣链接 https://movie.douban.com/subject/1297689/

◎片 长 145分钟

◎导 演 史蒂文·斯皮尔伯格 Steven Spielberg (id:1054440)

◎编 剧 斯科特·弗兰克 Scott Frank (id:1032312)

乔恩·科恩 Jon Cohen (id:1280982)

菲利普·迪克 Philip K. Dick (id:1036650)

◎演 员 汤姆·克鲁斯 Tom Cruise (id:1054435)

科林·法瑞尔 Colin Farrell (id:1084255)

马克斯·冯·叙多夫 Max von Sydow (id:1002675)

萨曼莎·莫顿 Samantha Morton (id:1044882)

凯瑟琳·莫里斯 Kathryn Morris (id:1007010)

卡梅隆·迪亚兹 Cameron Diaz (id:1054422)

斯蒂夫·理查德·哈里斯 Steve Richard Harris (id:1101644)

大卫·斯提夫尔 David Stifel (id:1385257)

杰西卡·哈珀 Jessica Harper (id:1097641)

尼尔·麦克唐纳 Neal McDonough (id:1031878)

保罗·托马斯·安德森 Paul Thomas Anderson (id:1054388)

威廉·麦鲍瑟 William Mapother (id:1000165)

彼得·斯特曼 Peter Stormare (id:1049549)

邦妮·摩根 Bonnie Morgan (id:1292480)

麦克·宾德尔 Mike Binder (id:1278653)

大卫·霍恩斯比 David Hornsby (id:1315876)

多米尼克·斯科特·凯伊 Dominic Scott Kay (id:1045080)

阿尔耶·格罗斯 Arye Gross (id:1101427)

阿什利·克劳 Ashley Crow (id:1069599)

乔·格拉什 Joel Gretsch (id:1036504)

蒂姆·布雷克·尼尔森 Tim Blake Nelson (id:1048166)

帕特里克·基尔帕特里克 Patrick Kilpatrick (id:1025297)

杰西卡·卡普肖 Jessica Capshaw (id:1022638)

弗兰克·格里罗 Frank Grillo (id:1100321)

安娜·玛利亚·霍斯福德 Anna Maria Horsford (id:1032179)

加里·戈德曼 Gary Goldman (id:1285047)

塞尔吉奥·米米卡-戈赞 Sergio Mimica-Gezzan (id:1292148)

罗纳德·舒塞特 Ronald Shusett (id:1297534)

Bonnie Curtis Bonnie Curtis (id:1281637)

约翰·威廉姆斯 John Williams (id:1054692)

雅努什·卡明斯基 Janusz Kaminski (id:1009475)

丹尼斯·查米恩 Denise Chamian (id:1280408)

Seth Reed Seth Reed (id:1295368)

Leslie McDonald Leslie McDonald (id:1291525)

Ramsey Avery Ramsey Avery (id:1301917)

克里斯·格拉克 Chris Gorak (id:1285166)

Paul Sonski Paul Sonski (id:1298061)

安妮·库尔贾安 Anne Kuljian (id:1289096)

阿莱克斯·麦克唐维尔 Alex McDowell (id:1291544)

德博拉·林恩·斯科特 Deborah Lynn Scott (id:1297071)

特里·巴利尔 Terry Baliel (id:1277776)

Patricia Miller Patricia Miller (id:1292094)

Karen Asano-Myers Karen Asano-Myers (id:1277472)

Ron Pipes Ron Pipes (id:1294562)

卡米尔·卡尔维 Camille Calvet (id:1279914)

米切尔·布克 Michèle Burke (id:1279653)

Mary Kay Morse Mary Kay Morse (id:1292574)

Candace Neal Candace Neal (id:1292976)

塞尔吉奥·米米卡-戈赞 Sergio Mimica-Gezzan (id:1292148)

布莱恩·斯莫兹 Brian Smrz (id:1297965)

Kathleen 'Bo' Bobak Kathleen 'Bo' Bobak (id:1278857)

Joe Incaprera Joe Incaprera (id:1287322)

Mark S. Miller Mark S. Miller (id:1292098)

内森·麦克基尼斯 Nathan McGuinness (id:1291611)

Earl Wiggins Earl Wiggins (id:1300883)

Marco Marenghi Marco Marenghi (id:1290975)

Alexander Laurant Alexander Laurant (id:1289510)

Kimberly Lashbrook Kimberly Lashbrook (id:1289470)

亨利·拉伯塔 Henry LaBounta (id:1289197)

帕特里克·贾尔维斯 Patrick Jarvis (id:1287625)

Chip Houghton Chip Houghton (id:1286970)

亚历克斯·G·奥托尔 Alex G. Ortoll (id:1293669)

Paul Ozzimo Paul Ozzimo (id:1293769)

Vance Piper Vance Piper (id:1294568)

Scott Younkin Scott Younkin (id:1307271)

Larry Ewing Larry Ewing (id:1304992)

Philippe Rebours Philippe Rebours (id:1304413)

Aaron McBride Aaron McBride (id:1304410)

弗兰克·格莱瓦特 Frank Gravatt (id:1304404)

阿伦·沃纳 Aron Warner (id:1300440)

肯尼斯·史密斯 Kenneth Smith (id:1297900)

马克·拉塞尔 Mark Russell (id:1296350)

克日什托夫·罗斯泰克 Krzysztof Rostek (id:1296166)

杰弗·海隆 Geoff Heron (id:1286513)

Simon Cheung Simon Cheung (id:1280629)

Dave Allen Dave Allen (id:1277032)

乔恩·亚历山大 Jon Alexander (id:1276987)

Robbie Clot Robbie Clot (id:1280938)

Wayne Billheimer Wayne Billheimer (id:1278638)

芭芭拉·布伦南 Barbara Brennan (id:1279246)

斯科特·法勒 Scott Farrar (id:1283472)

Jeff Boortz Jeff Boortz (id:1278969)

Scott Frankel Scott Frankel (id:1284099)

◎简 介

随着科技的发展,人类发明了能侦察人的脑电波的“聪明”的机器人――“先知”。“先知”能侦察出人的犯罪企图,所以在罪犯犯罪之前,就已经被犯罪预防组织的警察逮捕并获刑。

乔恩(汤姆?克鲁斯 Tom Cruise 饰)就是犯罪预防组织的一个主管。在一次通过“先知”成功阻止了一起因外遇引起的双人命案之后,乔恩隐约感到了这一套完美的预防犯罪系统中隐含的秘密,那就是少数派报告。原来,共有三个“先知”一起判定一个人是否有杀人企图。当出现分歧时,按少数服从多数原则定案,但最后若证明少数那一方是正确的话,则会秘密保存一份少数派报告。

乔恩一觉醒来,突然发现自己已是昔日同事的抓捕对象。乔恩唯一的出路就是找到能证明自己清白的那份少数派报告……

◎获奖情况 (共2项)

第75届奥斯卡金像奖 (2003)

最佳音效剪辑(提名)

第56届英国电影学院奖 (2003)

电影奖 最佳特殊视觉效果(提名)

  1. ##### MediaInfo ######

  2. General

  3. Unique ID : 200589878042173789875757724875609516945 (0x96E8348C540E6E6190194024231AAB91)

  4. Complete name : Minority.Report.2002.BluRay.1080p.x265.10bit.2Audio-MiniHD.mkv

  5. Format : Matroska

  6. Format version : Version 4

  7. File size : 10.0 GiB

  8. Duration : 2 h 25 min

  9. Overall bit rate : 9 881 kb/s

  10. Encoded date : UTC 2017-04-24 07:26:16

  11. Writing application : mkvmerge v9.7.1 ('Pandemonium') 64bit

  12. Writing library : libebml v1.3.4 + libmatroska v1.4.5

  13. Video

  14. ID : 1

  15. Format : HEVC

  16. Format/Info : High Efficiency Video Coding

  17. Format profile : Main 10@L4@Main

  18. Codec ID : V_MPEGH/ISO/HEVC

  19. Duration : 2 h 25 min

  20. Bit rate : 8 597 kb/s

  21. Width : 1 920 pixels

  22. Height : 804 pixels

  23. Display aspect ratio : 2.40:1

  24. Frame rate mode : Constant

  25. Frame rate : 23.976 (24000/1001/53354) FPS

  26. Color space : YUV

  27. Chroma subsampling : 4:2:0

  28. Bit depth : 10 bits

  29. Bits/(Pixel*Frame) : 0.232

  30. Stream size : 8.72 GiB (87%)

  31. Writing library : x265 2.3+32-1ed218717877:[Windows][GCC 6.3.0][64 bit] 10bit

  32. Encoding settings : cpuid=533541173503 / frame-threads=6 / numa-pools=36 / wpp / no-pmode / no-pme / no-psnr / no-ssim / log-level=2 / input-csp=1 / input-res=1920x804 / interlace=0 / total-frames=208825 / level-idc=0 / high-tier=1 / uhd-bd=0 / ref=5 / no-allow-non-conformance / no-repeat-headers / annexb / no-aud / no-hrd / info / hash=0 / no-temporal-layers / no-open-gop / min-keyint=1 / keyint=360 / bframes=8 / b-adapt=2 / b-pyramid / bframe-bias=0 / rc-lookahead=60 / lookahead-slices=4 / NTMzNTQ=uuDQuD2mJt9fsCf / scenecut=40 / no-intra-refresh / ctu=32 / min-cu-size=8 / rect / no-amp / max-tu-size=16 / tu-inter-depth=2 / tu-intra-depth=2 / limit-tu=4 / rdoq-level=2 / dynamic-rd=0.00 / ssim-rd / signhide / no-tskip / nr-intra=0 / nr-inter=0 / no-constrained-intra / no-strong-intra-smoothing / max-merge=3 / limit-refs=1 / limit-modes / me=3 / subme=5 / merange=25 / temporal-mvp / weightp / weightb / no-analyze-src-pics / deblock=-1:-1 / no-sao / no-sao-non-deblock / rd=4 / no-early-skip / rskip / no-fast-intra / no-tskip-fast / no-cu-lossless / b-intra / rdpenalty=1 / psy-rd=0.00 / psy-rdoq=5.00 / no-rd-refine / analysis-mode=0 / no-lossless / cbqpoffs=-2 / crqpoffs=-2 / rc=crf / crf=21.0 / qcomp=0.70 / qpstep=4 / stats-write=0 / stats-read=0 / ipratio=1.40 / pbratio=1.30 / aq-mode=2 / aq-strength=0.80 / cutree / zone-count=0 / no-strict-cbr / qg-size=16 / no-rc-grain / qpmax=69 / qpmin=0 / sar=0 / overscan=0 / videoformat=5 / range=0 / colorprim=1 / transfer=2 / colormatrix=2 / chromaloc=0 / display-window=0 / max-cll=0,0 / min-luma=0 / max-luma=1023 / log2-max-poc-lsb=8 / vui-timing-info / vui-hrd-info / slices=1 / opt-qp-pps / opt-ref-list-length-pps / no-multi-pass-opt-rps / scenecut-bias=0.05 / no-opt-cu-delta-qp / no-aq-motion / no-hdr / no-hdr-opt / refine-level=5 / no-limit-sao

  33. Default : Yes

  34. Forced : No

  35. Color range : Limited

  36. Color primaries : BT.709

  37. Audio #1

  38. ID : 2

  39. Format : AC-3

  40. Format/Info : Audio Coding 3

  41. Commercial name : Dolby Digital

  42. Codec ID : A_AC3

  43. Duration : 2 h 25 min

  44. Bit rate mode : Constant

  45. Bit rate : 640 kb/s

  46. Channel(s) : 6 channels

  47. Channel layout : L R C LFE Ls Rs

  48. Sampling rate : 48.0 kHz

  49. Frame rate : 31.250 FPS (1536 SPF)

  50. Compression mode : Lossy

  51. Stream size : 665 MiB (6%)

  52. Language : English

  53. Service kind : Complete Main

  54. Default : Yes

  55. Forced : No

  56. Audio #2

  57. ID : 3

  58. Format : AC-3

  59. Format/Info : Audio Coding 3

  60. Commercial name : Dolby Digital

  61. Codec ID : A_AC3

  62. Duration : 2 h 25 min

  63. Bit rate mode : Constant

  64. Bit rate : 448 kb/s

  65. Channel(s) : 6 channels

  66. Channel layout : L R C LFE Ls Rs

  67. Sampling rate : 48.0 kHz

  68. Frame rate : 31.250 FPS (1536 SPF)

  69. Compression mode : Lossy

  70. Stream size : 465 MiB (5%)

  71. Language : Chinese

  72. Service kind : Complete Main

  73. Default : No

  74. Forced : No

  75. Text #1

  76. ID : 4

  77. Format : PGS

  78. Muxing mode : zlib

  79. Codec ID : S_HDMV/PGS

  80. Codec ID/Info : Picture based subtitle format used on BDs/HD-DVDs

  81. Language : English

  82. Default : Yes

  83. Forced : No

  84. Text #2

  85. ID : 5

  86. Format : PGS

  87. Muxing mode : zlib

  88. Codec ID : S_HDMV/PGS

  89. Codec ID/Info : Picture based subtitle format used on BDs/HD-DVDs

  90. Language : Chinese

  91. Default : No

  92. Forced : No

  93. Text #3

  94. ID : 6

  95. Format : PGS

  96. Muxing mode : zlib

  97. Codec ID : S_HDMV/PGS

  98. Codec ID/Info : Picture based subtitle format used on BDs/HD-DVDs

  99. Language : Chinese

  100. Default : No

  101. Forced : No

  102. Menu

  103. 00:00:00.000 : en:Chapter 01

  104. 00:06:45.071 : en:Chapter 02

  105. 00:14:47.887 : en:Chapter 03

  106. 00:21:11.019 : en:Chapter 04

  107. 00:24:41.688 : en:Chapter 05

  108. 00:29:44.032 : en:Chapter 06

  109. 00:37:07.516 : en:Chapter 07

  110. 00:42:40.474 : en:Chapter 08

  111. 00:51:39.971 : en:Chapter 09

  112. 00:55:16.604 : en:Chapter 10

  113. 00:59:55.383 : en:Chapter 11

  114. 01:04:02.588 : en:Chapter 12

  115. 01:09:39.925 : en:Chapter 13

  116. 01:16:58.655 : en:Chapter 14

  117. 01:22:19.559 : en:Chapter 15

  118. 01:27:55.895 : en:Chapter 16

  119. 01:35:40.443 : en:Chapter 17

  120. 01:39:06.774 : en:Chapter 18

  121. 01:49:04.204 : en:Chapter 19

  122. 01:53:59.999 : en:Chapter 20

  123. 02:01:26.529 : en:Chapter 21

  124. 02:06:41.093 : en:Chapter 22

  125. 02:13:09.815 : en:Chapter 23

  126. 02:15:38.629 : en:Chapter 24

  127. 02:25:07.448 : en:Chapter 25


复制代码


TAGS 惊悚 犯罪 科幻 /

磁力链:
  • magnet:?xt=urn:btih:06FE2D0E4B31EFB4F2CA42C08B17F4A7AF46CB95
上传的附件:
BT9527电影天堂 1、BT9527电影天堂提供的BT文件均来源于互联网抓取,只供网友学习交流、技术提升使用。
2、我们遵守BitTorrent点对点协议原则,任何版权问题请联系原资源发布商,我们不处理任何版权纠纷,谢谢!如有争议请联系邮箱:BT9527#hotmail.com(#换成@)
3、如果您发现某页面或地址有错误,请联系站长邮箱BT9527#hotmail.com(#换成@),我们会尽快处理。您的热心是对BT9527电影天堂最大的支持。
4、本站建议去正规影院观看电影以支持电影行业发展。
最新回复 (0)

你可以在 登录 or 注册 后,对此帖发表评论!

返回
发新帖