尽善尽美[国英多音轨/中英字幕].As.Good.as.It.Gets.1997.BluRay.1080p.x265.10bit.2Audio-MiniHD 5.17GB

版主小s 6月前 298

◎译 名 尽善尽美 / 猫屎先生(港) / 爱在心头口难开(台) / 人生就是这样 / 渐入佳境 / 恋爱小说家

◎片 名 As Good as It Gets

◎年 代 1997

◎产 地 美国

◎类 别 剧情 / 喜剧 / 爱情

◎语 言 英语

◎上映日期 1997-12-25

◎IMDb链接 https://www.imdb.com/title/tt0119822/

◎豆瓣评分 8.2/10 (28835人评价)

◎豆瓣链接 https://movie.douban.com/subject/1293917/

◎片 长 139分钟

◎导 演 詹姆斯·L·布鲁克斯 James L. Brooks (id:1045001)

◎编 剧 马克·安德勒斯 Mark Andrus (id:1277272)

詹姆斯·L·布鲁克斯 James L. Brooks (id:1045001)

◎演 员 杰克·尼科尔森 Jack Nicholson (id:1054528)

海伦·亨特 Helen Hunt (id:1019017)

格雷戈·金尼尔 Greg Kinnear (id:1019040)

小库珀·古丁 Cuba Gooding Jr. (id:1013794)

斯基特·乌尔里奇 Skeet Ulrich (id:1004631)

雪莉·奈特 Shirley Knight (id:1010688)

雅德丽·史密斯 Yeardley Smith (id:1009343)

露贝·安缇维洛 Lupe Ontiveros (id:1127091)

Bibi Osterwald Bibi Osterwald (id:1134379)

贾菲·柯恩 Jaffe Cohen (id:1280981)

布赖恩·道尔 Brian Doyle (id:1041163)

克里斯蒂·吉 Kristi Zea (id:1041834)

Patricia Childress Patricia Childress (id:1028259)

Rebekah Johnson Rebekah Johnson (id:1104333)

米西·派勒 Missi Pyle (id:1041116)

莱斯利·史蒂芬森 Leslie Stefanson (id:1045066)

塔拉·苏博科夫 Tara Subkoff (id:1036691)

沙恩·布莱克 Shane Black (id:1036569)

彼得·雅各布森 Peter Jacobson (id:1002767)

丽莎·艾德尔斯汀 Lisa Edelstein (id:1017940)

兰道尔·巴蒂尼科夫 Randall Batinkoff (id:1054864)

杰西·詹姆斯 Jesse James (id:1103776)

杰米·肯尼迪 Jamie Kennedy (id:1019042)

贾斯汀·赫维克 Justin Herwick (id:1328109)

玛娅·鲁道夫 Maya Rudolph (id:1025183)

Mary Elizabeth Still Mary Elizabeth Still (id:1160324)

劳伦斯·卡斯丹 Lawrence Kasdan (id:1014071)

凯瑟琳·莫里斯 Kathryn Morris (id:1007010)

伍德·哈里斯 Wood Harris (id:1027295)

琳达·格赫林格 Linda Gehringer (id:1329755)

朱莉·本茨 Julie Benz (id:1044710)

哈罗德·雷米斯 Harold Ramis (id:1040554)

Kaitlin Hopkins Kaitlin Hopkins (id:1054638)

Jimmy Workman Jimmy Workman (id:1167801)

Danielle Spencer Danielle Spencer (id:1154858)

托德·索伦兹 Todd Solondz (id:1027349)

汤姆·麦高恩 Tom McGowan (id:1022854)

丹妮尔·布里瑟布瓦 Danielle Brisebois (id:1068046)

马特·马洛伊 Matt Malloy (id:1339737)

阿尔巴·阿尔巴尼斯 Alba Albanese (id:1056565)

Eddie L. Fauria (id:1220624)

James Gosnell (id:1253776)

莫里斯·拉马奇 Maurice LaMarche (id:1055202)

约翰尼·曼斯巴赫 Johnny Mansbach (id:1243151)

Oriana Nicole Tavoularis Oriana Nicole Tavoularis (id:1153249)

欧文·威尔逊 Owen Wilson (id:1006964)

布里吉特·约翰逊 Bridget Johnson (id:1287771)

劳伦斯·马克 Laurence Mark (id:1291011)

Aldric La'Auli Porter Aldric La'Auli Porter (id:1294768)

汉斯·季默 Hans Zimmer (id:1054386)

茱迪丝·欧文 Judith Owen (id:1363721)

Clay A. Griffith Clay A. Griffith (id:1285467)

比尔·布鲁茨基 Bill Brzeski (id:1279534)

米切尔·布克 Michèle Burke (id:1279653)

Allen Weisinger Allen Weisinger (id:1300632)

乔伊·萨帕塔 Joy Zapata (id:1301634)

迈克尔·杰曼 Michael Germain (id:1284741)

Linda Arnold Linda Arnold (id:1277436)

Aldric La'Auli Porter Aldric La'Auli Porter (id:1294768)

马克·丹菲特 Mark Dornfeld (id:1282612)

◎简 介

作家梅尔文(杰克?尼科尔森 饰)是一个脾气古怪的强迫症老头,没有家庭也没有朋友,整天关在屋里写他的第六十二部小说,生活如时钟般精准,受不了一点的打扰。

梅尔文的邻居西蒙(格雷戈?金尼尔 饰)是年轻的同性恋画家,养了一条可爱的小狗,生性活泼,脾气温和,经常受到梅尔文的侮辱。

梅尔文每天只出门一次,到同一家餐厅吃饭,餐厅女招待卡罗尔?康奈莉(海伦?亨特 饰)是唯一愿意而且能够为他服务的人。离了婚的卡罗尔与儿子斯潘塞住在一起,斯潘塞患有严重的哮喘病,这使得许多对卡罗尔有意思的男子知难而退。

一天,西蒙的住所遭到抢劫,西蒙身受重伤,住院前,将小狗托付给梅尔文照料,梅尔文渐渐喜欢上了这个小家伙,心理也发生了变化,开始关注周边的世界,主动帮助别人,认真审视自己对卡罗尔的好感……

◎获奖情况 (共14项)

第70届奥斯卡金像奖 (1998)

最佳影片(提名)

最佳男主角

└──杰克·尼科尔森 (id:1054528)

最佳女主角

└──海伦·亨特 (id:1019017)

最佳男配角(提名)

└──格雷戈·金尼尔 (id:1019040)

最佳原创剧本(提名)

最佳剪辑(提名)

└──理查德·马克斯 (id:1120890)

音乐/喜剧片最佳原创配乐(提名)

└──汉斯·季默 (id:1054386)

第55届金球奖 (1998)

电影类 最佳音乐/喜剧片

电影类 最佳导演(提名)

└──詹姆斯·L·布鲁克斯 (id:1045001)

电影类 音乐/喜剧片最佳男主角

└──杰克·尼科尔森 (id:1054528)

电影类 音乐/喜剧片最佳女主角

└──海伦·亨特 (id:1019017)

电影类 最佳男配角(提名)

└──格雷戈·金尼尔 (id:1019040)

电影类 最佳编剧(提名)

第22届日本电影学院奖 (1999)

最佳外语片(提名)

  1. ##### MediaInfo ######

  2. General

  3. Unique ID : 250522732749235500040796419914609976761 (0xBC78EC5BC293115EA863F862E17FE5B9)

  4. Complete name : As.Good.as.It.Gets.1997.BluRay.1080p.x265.10bit.2Audio-MiniHD.mkv

  5. Format : Matroska

  6. Format version : Version 4

  7. File size : 5.17 GiB

  8. Duration : 2 h 18 min

  9. Overall bit rate : 5 341 kb/s

  10. Encoded date : UTC 2017-09-07 08:52:30

  11. Writing application : mkvmerge v11.0.0 ('Alive') 64bit

  12. Writing library : libebml v1.3.4 + libmatroska v1.4.5

  13. Video

  14. ID : 1

  15. Format : HEVC

  16. Format/Info : High Efficiency Video Coding

  17. Codec ID : V_MPEGH/ISO/HEVC

  18. Duration : 2 h 18 min

  19. Bit rate : 4 189 kb/s

  20. Width : 1 920 pixels

  21. Height : 1 040 pixels

  22. Display aspect ratio : 1.85:1

  23. Frame rate mode : Constant

  24. Frame rate : 23.976 (24000/1001/53354) FPS

  25. Bits/(Pixel*Frame) : 0.087

  26. Stream size : 4.06 GiB (78%)

  27. Default : Yes

  28. Forced : No

  29. Audio #1

  30. ID : 2

  31. Format : AC-3

  32. Format/Info : Audio Coding 3

  33. Commercial name : Dolby Digital

  34. Codec ID : A_AC3

  35. Duration : 2 h 18 min

  36. Bit rate mode : Constant

  37. Bit rate : 640 kb/s

  38. Channel(s) : 6 channels

  39. Channel layout : L R C LFE Ls Rs

  40. Sampling rate : 48.0 kHz

  41. Frame rate : 31.250 FPS (1536 SPF)

  42. Compression mode : Lossy

  43. Stream size : 635 MiB (12%)

  44. Language : English

  45. Service kind : Complete Main

  46. Default : Yes

  47. Forced : No

  48. Audio #2

  49. ID : 3

  50. Format : AC-3

  51. Format/Info : Audio Coding 3

  52. Commercial name : Dolby Digital

  53. Codec ID : A_AC3

  54. Duration : 2 h 18 min

  55. Bit rate mode : Constant

  56. Bit rate : 448 kb/s

  57. Channel(s) : 6 channels

  58. Channel layout : L R C LFE Ls Rs

  59. Sampling rate : 48.0 kHz

  60. Frame rate : 31.250 FPS (1536 SPF)

  61. Compression mode : Lossy

  62. Stream size : 444 MiB (8%)

  63. Language : Chinese

  64. Service kind : Complete Main

  65. Default : No

  66. Forced : No

  67. Text #1

  68. ID : 4

  69. Format : PGS

  70. Muxing mode : zlib

  71. Codec ID : S_HDMV/PGS

  72. Codec ID/Info : Picture based subtitle format used on BDs/HD-DVDs

  73. Duration : 2 h 18 min

  74. Bit rate : 25.5 kb/s

  75. Count of elements : 3760

  76. Stream size : 25.2 MiB (0%)

  77. Language : English

  78. Default : Yes

  79. Forced : No

  80. Text #2

  81. ID : 5

  82. Format : PGS

  83. Muxing mode : zlib

  84. Codec ID : S_HDMV/PGS

  85. Codec ID/Info : Picture based subtitle format used on BDs/HD-DVDs

  86. Duration : 2 h 13 min

  87. Bit rate : 25.3 kb/s

  88. Count of elements : 3235

  89. Stream size : 24.1 MiB (0%)

  90. Language : Chinese

  91. Default : No

  92. Forced : No

  93. Text #3

  94. ID : 6

  95. Format : PGS

  96. Muxing mode : zlib

  97. Codec ID : S_HDMV/PGS

  98. Codec ID/Info : Picture based subtitle format used on BDs/HD-DVDs

  99. Duration : 2 h 13 min

  100. Bit rate : 13.1 kb/s

  101. Count of elements : 3235

  102. Stream size : 12.4 MiB (0%)

  103. Language : Chinese

  104. Default : No

  105. Forced : No

  106. Menu

  107. 00:00:00.000 : en:Chapter 01

  108. 00:10:08.774 : en:Chapter 02

  109. 00:21:14.690 : en:Chapter 03

  110. 00:32:46.547 : en:Chapter 04

  111. 00:42:08.984 : en:Chapter 05

  112. 00:50:11.967 : en:Chapter 06

  113. 01:02:33.332 : en:Chapter 07

  114. 01:20:22.526 : en:Chapter 08

  115. 01:30:08.778 : en:Chapter 09

  116. 01:44:23.048 : en:Chapter 10

  117. 01:55:40.224 : en:Chapter 11

  118. 02:13:52.816 : en:Chapter 12


复制代码


TAGS 剧情 喜剧 爱情 /

磁力链:
  • magnet:?xt=urn:btih:EB13F92760E3BD2073D38872FBA3DBFED7F42EE8
上传的附件:
BT9527电影天堂 1、BT9527电影天堂提供的BT文件均来源于互联网抓取,只供网友学习交流、技术提升使用。
2、我们遵守BitTorrent点对点协议原则,任何版权问题请联系原资源发布商,我们不处理任何版权纠纷,谢谢!如有争议请联系邮箱:BT9527#hotmail.com(#换成@)
3、如果您发现某页面或地址有错误,请联系站长邮箱BT9527#hotmail.com(#换成@),我们会尽快处理。您的热心是对BT9527电影天堂最大的支持。
4、本站建议去正规影院观看电影以支持电影行业发展。
最新回复 (0)

你可以在 登录 or 注册 后,对此帖发表评论!

返回
发新帖