占据[中文字幕].Becoming.2020.GER.BluRay.1080p.DTS-HD.MA5.1.x265.10bit-CTRLHD 7.36GB

版主小s 6月前 379

◎译 名 占据 / 形成

◎片 名 Becoming

◎年 代 2020

◎产 地 美国

◎类 别 剧情 / 科幻 / 恐怖

◎语 言 英语

◎上映日期 2020-03-06(美国)

◎IMDb链接 https://www.imdb.com/title/tt2573372/

◎豆瓣评分 4.8/10 (412人评价)

◎豆瓣链接 https://movie.douban.com/subject/21349225/

◎片 长 98分钟

◎导 演 奥玛尔·内姆 Omar Naim (id:1028447)

◎编 剧 奥玛尔·内姆 Omar Naim (id:1028447)

◎演 员 托比·凯贝尔 Toby Kebbell (id:1010533)

佩内洛普·米契尔 Penelope Mitchell (id:1328651)

杰弗里·丹尼尔·菲利普斯 Jeffrey Daniel Phillips (id:1294459)

斯蒂芬·里德尔 Stephen Rider (id:1326006)

梅丽莎·博洛纳 Melissa Bolona (id:1365210)

贝斯·布罗德里克 Beth Broderick (id:1032017)

杰森·帕特里克 Jason Patric (id:1017936)

卢·坦普尔 Lew Temple (id:1149667)

约翰·纽伯格 John Newberg (id:1424039)

丹尼尔·索斯沃思 Dan Southworth (id:1159987)

Rich Williams Rich Williams (id:1161552)

西耶娜·法拉尔 Sienna Farall (id:1329035)

吉米·斯达 Jimmy Star (id:1273873)

克莱尔·霍尔特 Claire Holt (id:1232340)

艾丽·席红 Allie Shehorn (id:1407235)

◎简 介

一个年轻女人意识到她的未婚夫被某种实体附身,占据他人身体、谋杀家人然后继续附身到新躯体之上,当“他”想组建属于自己的家庭时,她将面临着几乎不可能的抉择。

  1. ##### MediaInfo ######

  2. General

  3. Unique ID : 137435051807913028021976176002104467559 (0x676507360D769794772863FB4166A067)

  4. Complete name : Becoming.2020.GER.BluRay.1080p.DTS-HD.MA5.1.x265.10bit-CTRLHD.mkv

  5. Format : Matroska

  6. Format version : Version 4

  7. File size : 7.35 GiB

  8. Duration : 1 h 38 min

  9. Overall bit rate mode : Variable

  10. Overall bit rate : 10.7 Mb/s

  11. Encoded date : UTC 2022-05-31 07:44:16

  12. Writing application : mkvmerge v66.0.0 ('Josie') 64-bit

  13. Writing library : libebml v1.4.2 + libmatroska v1.6.4

  14. Video

  15. ID : 1

  16. Format : HEVC

  17. Format/Info : High Efficiency Video Coding

  18. Format profile : Main 10@L5@Main

  19. Codec ID : V_MPEGH/ISO/HEVC

  20. Duration : 1 h 38 min

  21. Bit rate : 6 986 kb/s

  22. Width : 1 920 pixels

  23. Height : 960 pixels

  24. Display aspect ratio : 2.000

  25. Frame rate mode : Constant

  26. Frame rate : 23.976 (24000/1001/53354) FPS

  27. Color space : YUV

  28. Chroma subsampling : 4:2:0

  29. Bit depth : 10 bits

  30. Bits/(Pixel*Frame) : 0.158

  31. Stream size : 4.81 GiB (65%)

  32. Writing library : x265 3.0+1-ed72af837053:[Windows][MSVC 1916][64 bit] 10bit

  33. Encoding settings : cpuid=533541111039 / frame-threads=3 / numa-pools=8 / wpp / no-pmode / pme / no-psnr / no-ssim / log-level=2 / input-csp=1 / input-res=1920x960 / interlace=0 / total-frames=141845 / level-idc=0 / high-tier=1 / uhd-bd=0 / ref=6 / no-allow-non-conformance / repeat-headers / annexb / no-aud / no-hrd / info / hash=0 / no-temporal-layers / no-open-gop / min-keyint=1 / keyint=576 / gop-lookahead=0 / bframes=14 / b-adapt=2 / b-pyramid / bframe-bias=0 / rc-lookahead=70 / lookahead-slices=6 / NTMzNTQ=uuDQuD2mJt9fsCf / scenecut=40 / radl=0 / no-splice / no-intra-refresh / ctu=32 / min-cu-size=16 / rect / amp / max-tu-size=8 / tu-inter-depth=2 / tu-intra-depth=2 / limit-tu=3 / rdoq-level=1 / dynamic-rd=0.00 / no-ssim-rd / signhide / no-tskip / nr-intra=0 / nr-inter=0 / no-constrained-intra / no-strong-intra-smoothing / max-merge=3 / limit-refs=3 / limit-modes / me=3 / subme=7 / merange=48 / temporal-mvp / weightp / weightb / no-analyze-src-pics / deblock=-1:-1 / no-sao / no-sao-non-deblock / rd=3 / early-skip / no-rskip / no-fast-intra / no-tskip-fast / no-cu-lossless / no-b-intra / no-splitrd-skip / rdpenalty=2 / psy-rd=1.00 / psy-rdoq=0.00 / no-rd-refine / no-lossless / cbqpoffs=0 / crqpoffs=0 / rc=abr / bitrate=7000 / qcomp=0.75 / qpstep=4 / stats-write=0 / stats-read=2 / cplxblur=20.0 / qblur=0.5 / ipratio=1.40 / pbratio=1.30 / aq-mode=3 / aq-strength=0.90 / cutree / zone-count=0 / no-strict-cbr / qg-size=32 / no-rc-grain / qpmax=69 / qpmin=0 / no-const-vbv / sar=0 / overscan=0 / videoformat=5 / range=0 / colorprim=2 / transfer=2 / colormatrix=2 / chromaloc=0 / display-window=0 / max-cll=0,0 / min-luma=0 / max-luma=1023 / log2-max-poc-lsb=8 / vui-timing-info / vui-hrd-info / slices=1 / no-opt-qp-pps / no-opt-ref-list-length-pps / no-multi-pass-opt-rps / scenecut-bias=0.05 / no-opt-cu-delta-qp / aq-motion / no-hdr / no-hdr-opt / no-dhdr10-opt / no-idr-recovery-sei / analysis-reuse-level=5 / scale-factor=0 / refine-intra=0 / refine-inter=0 / refine-mv=0 / refine-ctu-distortion=0 / no-limit-sao / ctu-info=0 / no-lowpass-dct / refine-analysis-type=0 / copy-pic=1 / max-ausize-factor=1.0 / no-dynamic-refine / no-single-sei / no-hevc-aq / qp-adaptation-range=1.00

  34. Default : Yes

  35. Forced : No

  36. Audio

  37. ID : 2

  38. Format : DTS XLL

  39. Format/Info : Digital Theater Systems

  40. Commercial name : DTS-HD Master Audio

  41. Codec ID : A_DTS

  42. Duration : 1 h 38 min

  43. Bit rate mode : Variable

  44. Bit rate : 3 644 kb/s

  45. Channel(s) : 6 channels

  46. Channel layout : C L R Ls Rs LFE

  47. Sampling rate : 48.0 kHz

  48. Frame rate : 93.750 FPS (512 SPF)

  49. Bit depth : 24 bits

  50. Compression mode : Lossless

  51. Stream size : 2.51 GiB (34%)

  52. Title : English

  53. Language : English

  54. Default : Yes

  55. Forced : No

  56. Text #1

  57. ID : 3

  58. Format : PGS

  59. Muxing mode : zlib

  60. Codec ID : S_HDMV/PGS

  61. Codec ID/Info : Picture based subtitle format used on BDs/HD-DVDs

  62. Duration : 1 h 36 min

  63. Bit rate : 24.1 kb/s

  64. Count of elements : 1923

  65. Stream size : 16.7 MiB (0%)

  66. Title : Chs&Eng

  67. Language : Chinese

  68. Default : Yes

  69. Forced : No

  70. Text #2

  71. ID : 4

  72. Format : PGS

  73. Muxing mode : zlib

  74. Codec ID : S_HDMV/PGS

  75. Codec ID/Info : Picture based subtitle format used on BDs/HD-DVDs

  76. Duration : 1 h 36 min

  77. Bit rate : 24.4 kb/s

  78. Count of elements : 1923

  79. Stream size : 16.9 MiB (0%)

  80. Title : Cht&Eng

  81. Language : Chinese

  82. Default : Yes

  83. Forced : No

  84. Text #3

  85. ID : 5

  86. Format : PGS

  87. Muxing mode : zlib

  88. Codec ID : S_HDMV/PGS

  89. Codec ID/Info : Picture based subtitle format used on BDs/HD-DVDs

  90. Duration : 1 h 36 min

  91. Bit rate : 14.8 kb/s

  92. Count of elements : 1923

  93. Stream size : 10.3 MiB (0%)

  94. Title : Chs

  95. Language : Chinese

  96. Default : Yes

  97. Forced : No

  98. Text #4

  99. ID : 6

  100. Format : PGS

  101. Muxing mode : zlib

  102. Codec ID : S_HDMV/PGS

  103. Codec ID/Info : Picture based subtitle format used on BDs/HD-DVDs

  104. Duration : 1 h 36 min

  105. Bit rate : 15.0 kb/s

  106. Count of elements : 1923

  107. Stream size : 10.4 MiB (0%)

  108. Title : Cht

  109. Language : Chinese

  110. Default : Yes

  111. Forced : No

  112. Text #5

  113. ID : 7

  114. Format : PGS

  115. Muxing mode : zlib

  116. Codec ID : S_HDMV/PGS

  117. Codec ID/Info : Picture based subtitle format used on BDs/HD-DVDs

  118. Duration : 1 h 31 min

  119. Bit rate : 19.4 kb/s

  120. Count of elements : 1418

  121. Stream size : 12.7 MiB (0%)

  122. Title : Ger

  123. Language : German

  124. Default : Yes

  125. Forced : No

  126. Menu

  127. 00:00:00.000 : :Chapter 1

  128. 00:12:06.225 : :Chapter 2

  129. 00:19:45.809 : :Chapter 3

  130. 00:29:54.167 : :Chapter 4

  131. 00:40:59.123 : :Chapter 5

  132. 00:51:16.114 : :Chapter 6

  133. 01:01:36.943 : :Chapter 7

  134. 01:10:44.031 : :Chapter 8

  135. 01:18:46.888 : :Chapter 9

  136. 01:24:47.290 : :Chapter 10

  137. 01:31:49.670 : :Chapter 11


复制代码


TAGS 剧情 恐怖 科幻 /

磁力链:
  • magnet:?xt=urn:btih:B2FB13F19048918031EAA106937B91DC784139BD
上传的附件:
BT9527电影天堂 1、BT9527电影天堂提供的BT文件均来源于互联网抓取,只供网友学习交流、技术提升使用。
2、我们遵守BitTorrent点对点协议原则,任何版权问题请联系原资源发布商,我们不处理任何版权纠纷,谢谢!如有争议请联系邮箱:BT9527#hotmail.com(#换成@)
3、如果您发现某页面或地址有错误,请联系站长邮箱BT9527#hotmail.com(#换成@),我们会尽快处理。您的热心是对BT9527电影天堂最大的支持。
4、本站建议去正规影院观看电影以支持电影行业发展。
最新回复 (0)

你可以在 登录 or 注册 后,对此帖发表评论!

返回
发新帖