今夜结束之前[共2部合集][中文字幕].Before.Tonight.is.Over.1966.GBR.Bonus.BluRay.1080p.LPCM.2.0.x264-CTRLHD 4.15GB

版主小s 6月前 416

◎译 名 今夜结束之前 / Before This Night Is Over

◎片 名 Kym sa skon?í táto noc

◎年 代 1966

◎产 地 捷克斯洛伐克

◎类 别 剧情

◎语 言 斯洛伐克语 / 德语

◎上映日期 1966-03-25

◎IMDb链接 https://www.imdb.com/title/tt0174844/

◎豆瓣评分 7.3/10 (123人评价)

◎豆瓣链接 https://movie.douban.com/subject/3380374/

◎片 长 Czechoslovakia: 91 分钟

◎导 演 彼得·索兰 Peter Solan (id:1048872)

◎编 剧 彼得·索兰 Peter Solan (id:1048872)

◎演 员 亚娜·吉罗娃 Jana Gyrová (id:1096921)

伊特卡·泽莱诺霍尔斯卡 Jitka Zelenohorská (id:1160744)

斯塔诺·丹恰克 Stano Danciak (id:1075761)

马里安·洛布道 Marián Labuda (id:1107823)

尤利乌斯·潘季克 Július Pántik (id:1143817)

瓦莲京娜·蒂洛娃 Valentina Thielová (id:1160026)

弗拉迪米尔·杜尔迪克 Vladimír Durdík (id:1090177)

威廉·波洛尼 Viliam Polónyi (id:1133005)

卡罗尔·什皮沙克 Karol Spisák (id:1153507)

伊万·克里沃苏德斯基 Ivan Krivosudsky (id:1112685)

奥莉加·弗龙斯卡 Ol'ga Vronská (id:1163718)

Vincent Rosinec Vincent Rosinec (id:1047587)

Maximilián Remen Maximilián Remen (id:1040303)

◎简 介

索兰的新浪潮三部曲之二。另两部是《巴纳巴斯考斯事件》和《拳击手与死神》。

The action of the film takes place in the course of one night at a fashionable nightclub in Bratislava. The leading characters are two young girls who are spending their holiday in Bratislava and two boys who live there.

  1. 合集文件列表:

  2. 1.Before.Tonight.is.Over.1966.GBR.Bonus.E01.BluRay.1080p.LPCM.2.0.x264-CTRLHD.mkv 2.64GB

  3. 2.Before.Tonight.is.Over.1966.GBR.Bonus.E02.BluRay.1080p.LPCM.2.0.x264-CTRLHD.mkv 1.26GB


复制代码

  1. ##### MediaInfo ######

  2. General

  3. Unique ID : 337380798340156362570172358981325568277 (0xFDD12D9FB9900AE910E73631CEAA3915)

  4. Complete name : Before.Tonight.is.Over.1966.GBR.Bonus.E01.BluRay.1080p.LPCM.2.0.x264-CTRLHD.mkv

  5. Format : Matroska

  6. Format version : Version 4

  7. File size : 2.64 GiB

  8. Duration : 27 min 31 s

  9. Overall bit rate : 13.7 Mb/s

  10. Encoded date : UTC 2022-05-31 13:12:05

  11. Writing application : mkvmerge v68.0.0 ('The Curtain') 64-bit

  12. Writing library : libebml v1.4.2 + libmatroska v1.6.4

  13. Video

  14. ID : 1

  15. Format : AVC

  16. Format/Info : Advanced Video Codec

  17. Format profile : High@L4.1

  18. Format settings : CABAC / 4 Ref Frames

  19. Format settings, CABAC : Yes

  20. Format settings, Reference frames : 4 frames

  21. Codec ID : V_MPEG4/ISO/AVC

  22. Duration : 27 min 31 s

  23. Bit rate : 12.1 Mb/s

  24. Width : 1 920 pixels

  25. Height : 1 080 pixels

  26. Display aspect ratio : 16:9

  27. Frame rate mode : Constant

  28. Frame rate : 24.000 FPS

  29. Color space : YUV

  30. Chroma subsampling : 4:2:0

  31. Bit depth : 8 bits

  32. Scan type : Progressive

  33. Bits/(Pixel*Frame) : 0.244

  34. Stream size : 2.34 GiB (89%)

  35. Writing library : x264 core 163 r3059 b684ebe

  36. Encoding settings : cabac=1 / ref=4 / deblock=1:-3:-3 / analyse=0x3:0x133 / me=umh / subme=11 / psy=1 / psy_rd=1.00:0.00 / mixed_ref=1 / me_range=64 / chroma_me=1 / trellis=2 / 8x8dct=1 / cqm=0 / deadzone=21,11 / fast_pskip=0 / chroma_qp_offset=-2 / threads=34 / lookahead_threads=8 / sliced_threads=0 / nr=0 / decimate=0 / interlaced=0 / NTMzNTQ= / bluray_compat=0 / constrained_intra=0 / bframes=12 / b_pyramid=2 / b_adapt=2 / b_bias=0 / direct=3 / weightb=1 / open_gop=0 / weightp=2 / keyint=250 / keyint_min=24 / NTMzNTQ=uuDQuD2mJt9fsCf / scenecut=40 / intra_refresh=0 / rc=crf / mbtree=0 / crf=18.0 / qcomp=0.70 / qpmin=0 / qpmax=69 / qpstep=4 / NTMzNTQ=LmsMAP37EqsCpk / ip_ratio=1.30 / pb_ratio=1.20 / aq=3:0.80

  37. Default : Yes

  38. Forced : No

  39. Color range : Limited

  40. Color primaries : BT.709

  41. Matrix coefficients : BT.709

  42. Audio

  43. ID : 2

  44. Format : PCM

  45. Format settings : Little / Signed

  46. Codec ID : A_PCM/INT/LIT

  47. Duration : 27 min 31 s

  48. Bit rate mode : Constant

  49. Bit rate : 1 536 kb/s

  50. Channel(s) : 2 channels

  51. Sampling rate : 48.0 kHz

  52. Frame rate : 25.000 FPS (1920 SPF)

  53. Bit depth : 16 bits

  54. Stream size : 302 MiB (11%)

  55. Language : Slovak

  56. Default : Yes

  57. Forced : No

  58. Text #1

  59. ID : 3

  60. Format : PGS

  61. Muxing mode : zlib

  62. Codec ID : S_HDMV/PGS

  63. Codec ID/Info : Picture based subtitle format used on BDs/HD-DVDs

  64. Duration : 25 min 43 s

  65. Bit rate : 34.2 kb/s

  66. Count of elements : 586

  67. Stream size : 6.28 MiB (0%)

  68. Language : Chinese

  69. Default : Yes

  70. Forced : No

  71. Text #2

  72. ID : 4

  73. Format : PGS

  74. Muxing mode : zlib

  75. Codec ID : S_HDMV/PGS

  76. Codec ID/Info : Picture based subtitle format used on BDs/HD-DVDs

  77. Duration : 25 min 43 s

  78. Bit rate : 35.4 kb/s

  79. Count of elements : 586

  80. Stream size : 6.52 MiB (0%)

  81. Language : Chinese

  82. Default : Yes

  83. Forced : No

  84. Menu

  85. 00:00:00.000 : zh:第 01 章

  86. 00:07:40.792 : zh:第 02 章

  87. 00:15:01.875 : zh:第 03 章

  88. 00:21:56.250 : zh:第 04 章


复制代码


TAGS 剧情

磁力链:
  • magnet:?xt=urn:btih:3058E1441F7674A0F40F7F2FD6614FF1ED7D63A9
上传的附件:
BT9527电影天堂 1、BT9527电影天堂提供的BT文件均来源于互联网抓取,只供网友学习交流、技术提升使用。
2、我们遵守BitTorrent点对点协议原则,任何版权问题请联系原资源发布商,我们不处理任何版权纠纷,谢谢!如有争议请联系邮箱:BT9527#hotmail.com(#换成@)
3、如果您发现某页面或地址有错误,请联系站长邮箱BT9527#hotmail.com(#换成@),我们会尽快处理。您的热心是对BT9527电影天堂最大的支持。
4、本站建议去正规影院观看电影以支持电影行业发展。
最新回复 (0)

你可以在 登录 or 注册 后,对此帖发表评论!

返回
发新帖