黑豹[国英多音轨/简繁英字幕].Black.Panther.2018.BluRay.1080p.2Audio.DTS-HD.MA.7.1.x265.10bit-ALT 11.02GB

版主小s 6月前 408

◎译 名 黑豹

◎片 名 Black Panther

◎年 代 2018

◎产 地 美国 / 南非

◎类 别 动作 / 科幻 / 冒险

◎语 言 英语 / 斯瓦希里语 / 科萨语 / 韩语

◎上映日期 2018-03-09(中国大陆) / 2018-02-16(美国)

◎IMDb链接 https://www.imdb.com/title/tt1825683/

◎豆瓣评分 6.5/10 (421709人评价)

◎豆瓣链接 https://movie.douban.com/subject/6390825/

◎片 长 134分钟

◎导 演 瑞恩·库格勒 Ryan Coogler (id:1326531)

◎编 剧 瑞恩·库格勒 Ryan Coogler (id:1326531)

乔·罗伯特·科尔 Joe Robert Cole (id:1389011)

斯坦·李 Stan Lee (id:1013888)

杰克·科比 Jack Kirby (id:1050183)

◎演 员 查德维克·博斯曼 Chadwick Boseman (id:1327680)

露皮塔·尼永奥 Lupita Nyong'o (id:1334862)

迈克尔·B·乔丹 Michael B. Jordan (id:1107320)

丹娜·奎里拉 Danai Gurira (id:1308787)

马丁·弗瑞曼 Martin Freeman (id:1049612)

丹尼尔·卡卢亚 Daniel Kaluuya (id:1316928)

利蒂希娅·赖特 Letitia Wright (id:1356810)

温斯顿·杜克 Winston Duke (id:1362864)

斯特林·K·布朗 Sterling K. Brown (id:1325589)

安吉拉·贝塞特 Angela Bassett (id:1025214)

福里斯特·惠特克 Forest Whitaker (id:1053567)

安迪·瑟金斯 Andy Serkis (id:1002708)

弗洛伦丝·卡松巴 Florence Kasumba (id:1357653)

约翰·卡尼 John Kani (id:1357828)

大卫·S·李 David S. Lee (id:1325400)

娜比娅·毕 Nabiyah Be (id:1389035)

西黛尔·诺尔 Sydelle Noel (id:1370675)

斯坦·李 Stan Lee (id:1013888)

阿特达万·卡尼 Atandwa Kani (id:1389921)

塞巴斯蒂安·斯坦 Sebastian Stan (id:1021985)

艾利克斯·希伯特 Alex R. Hibbert (id:1365302)

伊丽莎白艾尔金斯 Elizabeth Elkins (id:1089777)

Sasha Morfaw Sasha Morfaw (id:1385585)

班巴德贾恩·班巴 Bambadjan Bamba (id:1250546)

丹泽尔·惠特克 Denzel Whitaker (id:1018096)

丹尼·萨帕尼 Danny Sapani (id:1143809)

伊萨赫·德·班克尔 Isaach De Bankolé (id:1022827)

香奈特·芮妮·威尔逊 Shaunette Renée Wilson (id:1388816)

凯文·费奇 Kevin Feige (id:1340830)

斯坦·李 Stan Lee (id:1013888)

诗莎 SZA (id:1409539)

音浪 Sounwave (id:1409536)

肯德里克·拉马尔 Kendrick Lamar (id:1409537)

路德维格·戈兰松 Ludwig G?ransson (id:1265962)

安东尼·蒂菲斯 Anthony Tiffith (id:1409538)

瑞秋·莫里森 Rachel Morrison (id:1367619)

Jerad Marantz Jerad Marantz (id:1454186)

汉娜·比奇勒 Hannah Beachler (id:1408358)

杰·哈特 Jay Hart (id:1286155)

露丝·E·卡特 Ruth E. Carter (id:1280197)

劳拉·丹德里奇 Laura Dandridge (id:1341790)

彼得·J·戴夫林 Peter J. Devlin (id:1282327)

史蒂夫·博得德克 Steve Boeddeker (id:1276635)

本杰明·A·贝尔特 Benjamin A. Burtt (id:1409564)

布兰登·普罗克特 Brandon Proctor (id:1294944)

奥·布里克 Ed Ulbrich (id:1410103)

达里尔·索丘克 Daryl Sawchuk (id:1416842)

拉斐尔·皮门特尔 Raphael A. Pimentel (id:1419122)

罗布·荷兰 Rob Holland (id:1410101)

杰西卡卡林顿 Jessica Carrington (id:1404965)

丹尼尔·萨迪克 Daniel Sudick (id:1298615)

迈克尔·狄龙 Michael Dillon (id:1230257)

伊万·雅格布斯 Evan Jacobs (id:1042616)

瑞恩·艾伦 Ryan Allen (id:1247853)

乔纳森·希克曼 Jonathan Hickman (id:1453617)

◎简 介

位于非洲的神秘国家瓦坎达,凭借来自宇宙的振金而成为科技极度发达的国家,不过他们长久封闭,始终对外界保守这个秘密。在前国王死于联合国爆炸袭击后,特查拉王子(查德维克·博斯曼 Chadwick Boseman 饰)继任成为新的国王,同时他也是黑豹的继承者。登基之后,特查拉与前女友娜吉雅(露皮塔·尼永奥 Lupita Nyong'o 饰)、贴身侍卫奥姆烨(丹娜·奎里拉 Danai Gurira 饰)追查曾经盗取振金并杀害瓦坎达人的尤利西斯·克劳(安迪·瑟金斯 Andy Serkis 饰)。一番厮杀后,克劳侥幸逃脱,谁知最终死于合伙人艾瑞克·克尔芒戈(迈克尔·B·乔丹 Michael B. Jordan 饰)之手。艾瑞克同样具有瓦坎达血统,而且当年他的父亲死在了自己的兄弟——特查拉父亲的手中。

怀着莫大的仇恨,艾瑞克踏足瓦坎达,去争夺至高无上的王位……

◎获奖情况 (共76项)

第91届奥斯卡金像奖 (2019)

最佳影片(提名)

└──凯文·费奇 (id:1340830)

最佳混音(提名)

最佳音效剪辑(提名)

最佳艺术指导

最佳服装设计

└──露丝·E·卡特 (id:1280197)

最佳原创配乐

└──路德维格·戈兰松 (id:1265962)

最佳原创歌曲(提名)

第76届金球奖 (2019)

电影类 最佳剧情片(提名)

电影类 最佳原创配乐(提名)

电影类 最佳原创歌曲(提名)

第72届英国电影学院奖 (2019)

电影奖 最佳特殊视觉效果

第27届MTV电影奖 (2018)

MTV电影奖 年度电影

MTV电影奖 最佳表演

└──查德维克·博斯曼 (id:1327680)

MTV电影奖 最佳打斗(提名)

MTV电影奖 最佳银幕组合(提名)

MTV电影奖 最佳反派

└──迈克尔·B·乔丹 (id:1107320)

MTV电影奖 最佳英雄形象

└──查德维克·博斯曼 (id:1327680)

MTV电影奖 最佳抢镜(提名)

└──利蒂希娅·赖特 (id:1356810)

第25届美国演员工会奖 (2019)

电影奖 最佳群戏

电影最佳特技群戏

第71届美国编剧工会奖 (2019)

电影奖 最佳改编剧本(提名)

第30届美国制片人工会奖 (2019)

最佳电影制片人奖(提名)

第23届美国艺术指导工会奖 (2019)

电影奖 最佳幻想电影艺术指导

└──汉娜·比奇勒 (id:1408358)

第21届美国服装设计工会奖 (2019)

科幻/奇幻题材电影最佳服装设计

└──露丝·E·卡特 (id:1280197)

第6届美国化妆及发型设计工会奖 (2019)

电影类最佳年代戏发型设计(提名)

电影类最佳特效化妆(提名)

第66届美国音效剪辑协会奖 (2019)

金卷轴奖 最佳电影音效剪辑(提名)

金卷轴奖 最佳配乐剪辑(提名)

第55届美国声音效果协会奖 (2019)

真人电影最佳音效(提名)

第90届美国国家评论协会奖 (2018)

年度佳片

第24届美国评论家选择电影奖 (2019)

最佳影片(提名)

最佳男配角(提名)

└──迈克尔·B·乔丹 (id:1107320)

最佳群戏(提名)

最佳动作片(提名)

最佳改编剧本(提名)

最佳摄影(提名)

最佳配乐(提名)

最佳歌曲(提名)

最佳美术指导

最佳服装设计

最佳发型化妆(提名)

最佳视觉效果

第19届美国电影学会奖 (2018)

年度佳片

第23届金卫星奖 (2019)

电影部门 最佳剧情片(提名)

电影部门 最佳原创歌曲(提名)

电影部门 最佳摄影(提名)

电影部门 最佳视觉效果

电影部门 最佳音效(提名)

电影部门 最佳美术指导(提名)

电影部门 最佳服装设计(提名)

第22届好莱坞电影奖 (2018)

年度电影

└──瑞恩·库格勒 (id:1326531)

年度艺术指导

第17届华盛顿影评人协会奖 (2018)

最佳导演(提名)

└──瑞恩·库格勒 (id:1326531)

最佳男配角(提名)

└──迈克尔·B·乔丹 (id:1107320)

最佳改编剧本(提名)

最佳群戏(提名)

最佳原创配乐(提名)

└──路德维格·戈兰松 (id:1265962)

最佳艺术指导

第39届伦敦影评人协会奖 (2019)

年度男配角(提名)

└──迈克尔·B·乔丹 (id:1107320)

年度英国/爱尔兰男演员(提名)

└──丹尼尔·卡卢亚 (id:1316928)

第44届洛杉矶影评人协会奖 (2018)

最佳艺术指导

第31届芝加哥影评人协会奖 (2018)

最佳男配角(提名)

└──迈克尔·B·乔丹 (id:1107320)

最佳视觉效果(提名)

最佳艺术指导(提名)

第17届旧金山影评人协会奖 (2018)

最佳男配角

└──迈克尔·B·乔丹 (id:1107320)

最佳改编剧本(提名)

最佳艺术指导

最佳原创配乐(提名)

第18届凤凰城影评人协会奖 (2018)

最佳视觉效果

十佳影片

第3届亚特兰大影评人协会奖 (2018)

十佳影片

第22届美国在线影评人协会奖 (2019)

最佳男配角

└──迈克尔·B·乔丹 (id:1107320)

最佳原创配乐(提名)

最佳服装设计

第5届豆瓣电影年度榜单 (2018)

年度电影原声(提名)

第4届豆瓣电影年度榜单 (2017)

最值得期待的外语电影(提名)

  1. ##### MediaInfo ######

  2. General

  3. Unique ID : 187197617922185562371779042204011741088 (0x8CD4F32544DD15D25E71958B45543FA0)

  4. Complete name : Black.Panther.2018.BluRay.1080p.2Audio.DTS-HD.MA.7.1.x265.10bit-ALT.mkv

  5. Format : Matroska

  6. Format version : Version 4

  7. File size : 11.0 GiB

  8. Duration : 2 h 14 min

  9. Overall bit rate mode : Variable

  10. Overall bit rate : 11.7 Mb/s

  11. Encoded date : UTC 2022-06-01 01:54:37

  12. Writing application : mkvmerge v49.0.0 ('Sick Of Losing Soulmates') 64-bit

  13. Writing library : libebml v1.4.0 + libmatroska v1.6.1

  14. Video

  15. ID : 1

  16. Format : HEVC

  17. Format/Info : High Efficiency Video Coding

  18. Format profile : Main 10@L5.1@High

  19. Codec ID : V_MPEGH/ISO/HEVC

  20. Duration : 2 h 14 min

  21. Bit rate : 5 711 kb/s

  22. Width : 1 920 pixels

  23. Height : 804 pixels

  24. Display aspect ratio : 2.40:1

  25. Frame rate mode : Constant

  26. Frame rate : 23.976 (24000/1001/53354) FPS

  27. Color space : YUV

  28. Chroma subsampling : 4:2:0

  29. Bit depth : 10 bits

  30. Bits/(Pixel*Frame) : 0.154

  31. Stream size : 5.37 GiB (49%)

  32. Title : HEVC, x265Main10@L5.1@High, 24/1.001 fps @ 5710 kbps

  33. Writing library : x265 3.5+36-1f2c8da77:[Windows][GCC 11.2.0][64 bit] 10bit

  34. Encoding settings : cpuid=533541049583 / frame-threads=2 / numa-pools=4 / wpp / no-pmode / no-pme / no-psnr / no-ssim / log-level=2 / input-csp=1 / input-res=1920x804 / interlace=0 / total-frames=193562 / level-idc=51 / high-tier=1 / uhd-bd=0 / ref=5 / no-allow-non-conformance / no-repeat-headers / annexb / no-aud / no-eob / no-eos / no-hrd / info / hash=0 / no-temporal-layers / open-gop / min-keyint=24 / keyint=240 / gop-lookahead=0 / bframes=6 / b-adapt=2 / b-pyramid / bframe-bias=0 / rc-lookahead=40 / lookahead-slices=0 / NTMzNTQ=uuDQuD2mJt9fsCf / scenecut=40 / no-hist-scenecut / radl=0 / no-splice / no-intra-refresh / ctu=32 / min-cu-size=8 / no-rect / no-amp / max-tu-size=32 / tu-inter-depth=3 / tu-intra-depth=3 / limit-tu=4 / rdoq-level=2 / dynamic-rd=0.00 / no-ssim-rd / signhide / no-tskip / nr-intra=0 / nr-inter=0 / no-constrained-intra / no-strong-intra-smoothing / max-merge=4 / limit-refs=1 / limit-modes / me=3 / subme=4 / merange=25 / temporal-mvp / no-frame-dup / no-hme / weightp / weightb / no-analyze-src-pics / deblock=-3:-3 / no-sao / no-sao-non-deblock / rd=6 / selective-sao=0 / no-early-skip / rskip / no-fast-intra / no-tskip-fast / no-cu-lossless / b-intra / no-splitrd-skip / rdpenalty=0 / psy-rd=2.00 / psy-rdoq=1.00 / no-rd-refine / no-lossless / cbqpoffs=-2 / crqpoffs=-2 / rc=crf / crf=17.0 / qcomp=0.65 / qpstep=4 / stats-write=0 / stats-read=0 / vbv-maxrate=80000 / vbv-bufsize=80000 / vbv-init=0.9 / min-vbv-fullness=50.0 / max-vbv-fullness=80.0 / crf-max=0.0 / crf-min=0.0 / ipratio=1.40 / pbratio=1.30 / aq-mode=2 / aq-strength=0.85 / cutree / zone-count=0 / no-strict-cbr / qg-size=32 / no-rc-grain / qpmax=69 / qpmin=0 / no-const-vbv / sar=1 / overscan=0 / videoformat=5 / range=0 / colorprim=1 / transfer=1 / colormatrix=1 / chromaloc=0 / display-window=0 / cll=0,0 / min-luma=0 / max-luma=1023 / log2-max-poc-lsb=8 / vui-timing-info / vui-hrd-info / slices=1 / no-opt-qp-pps / no-opt-ref-list-length-pps / no-multi-pass-opt-rps / scenecut-bias=0.05 / hist-threshold=0.03 / no-opt-cu-delta-qp / no-aq-motion / no-hdr10 / no-hdr10-opt / no-dhdr10-opt / no-idr-recovery-sei / analysis-reuse-level=0 / analysis-save-reuse-level=0 / analysis-load-reuse-level=0 / scale-factor=0 / refine-intra=0 / refine-inter=0 / refine-mv=1 / refine-ctu-distortion=0 / no-limit-sao / ctu-info=0 / no-lowpass-dct / refine-analysis-type=0 / copy-pic=1 / max-ausize-factor=1.0 / no-dynamic-refine / no-single-sei / no-hevc-aq / no-svt / no-field / qp-adaptation-range=1.00 / scenecut-aware-qp=0conformance-window-offsets / right=0 / bottom=0 / NTMzNTQ= / decoder-max-rate=0 / no-vbv-live-multi-pass

  35. Language : English

  36. Default : Yes

  37. Forced : No

  38. Color range : Limited

  39. Color primaries : BT.709

  40. Transfer characteristics : BT.709

  41. Matrix coefficients : BT.709

  42. Audio #1

  43. ID : 2

  44. Format : DTS XLL

  45. Format/Info : Digital Theater Systems

  46. Commercial name : DTS-HD Master Audio

  47. Codec ID : A_DTS

  48. Duration : 2 h 14 min

  49. Bit rate mode : Variable

  50. Bit rate : 4 981 kb/s

  51. Channel(s) : 8 channels

  52. Channel layout : C L R LFE Lb Rb Lss Rss

  53. Sampling rate : 48.0 kHz

  54. Frame rate : 93.750 FPS (512 SPF)

  55. Bit depth : 24 bits

  56. Compression mode : Lossless

  57. Stream size : 4.68 GiB (42%)

  58. Title : English DTS-HD Master Audio 7.1 @ 4981 kbps

  59. Language : English

  60. Default : Yes

  61. Forced : No

  62. Audio #2

  63. ID : 3

  64. Format : AC-3

  65. Format/Info : Audio Coding 3

  66. Commercial name : Dolby Digital

  67. Codec ID : A_AC3

  68. Duration : 2 h 14 min

  69. Bit rate mode : Constant

  70. Bit rate : 640 kb/s

  71. Channel(s) : 6 channels

  72. Channel layout : L R C LFE Ls Rs

  73. Sampling rate : 48.0 kHz

  74. Frame rate : 31.250 FPS (1536 SPF)

  75. Compression mode : Lossy

  76. Stream size : 616 MiB (5%)

  77. Title : Mandarin Dolby Digital Audio 5.1 @ 640 kbps 原盘国语

  78. Language : Chinese

  79. Service kind : Complete Main

  80. Default : No

  81. Forced : No

  82. Audio #3

  83. ID : 4

  84. Format : AC-3

  85. Format/Info : Audio Coding 3

  86. Commercial name : Dolby Digital

  87. Codec ID : A_AC3

  88. Duration : 2 h 14 min

  89. Bit rate mode : Constant

  90. Bit rate : 192 kb/s

  91. Channel(s) : 2 channels

  92. Channel layout : L R

  93. Sampling rate : 48.0 kHz

  94. Frame rate : 31.250 FPS (1536 SPF)

  95. Compression mode : Lossy

  96. Stream size : 185 MiB (2%)

  97. Title : English Dolby Digital Audio 2.0 @ 192 kbps Commentary

  98. Language : English

  99. Service kind : Complete Main

  100. Default : No

  101. Forced : No

  102. Text #1

  103. ID : 5

  104. Format : PGS

  105. Codec ID : S_HDMV/PGS

  106. Codec ID/Info : Picture based subtitle format used on BDs/HD-DVDs

  107. Duration : 2 h 14 min

  108. Bit rate : 26.7 kb/s

  109. Count of elements : 2880

  110. Stream size : 25.6 MiB (0%)

  111. Title : Eng/SUP

  112. Language : English

  113. Default : No

  114. Forced : No

  115. Text #2

  116. ID : 6

  117. Format : PGS

  118. Codec ID : S_HDMV/PGS

  119. Codec ID/Info : Picture based subtitle format used on BDs/HD-DVDs

  120. Duration : 2 h 14 min

  121. Bit rate : 19.7 kb/s

  122. Count of elements : 2840

  123. Stream size : 18.9 MiB (0%)

  124. Title : Chs/SUP 原盘简体

  125. Language : Chinese

  126. Default : Yes

  127. Forced : No

  128. Text #3

  129. ID : 7

  130. Format : PGS

  131. Codec ID : S_HDMV/PGS

  132. Codec ID/Info : Picture based subtitle format used on BDs/HD-DVDs

  133. Duration : 2 h 14 min

  134. Bit rate : 17.3 kb/s

  135. Count of elements : 2998

  136. Stream size : 16.6 MiB (0%)

  137. Title : Cht/SUP 原盘繁体(TW)

  138. Language : Chinese

  139. Default : No

  140. Forced : No

  141. Text #4

  142. ID : 8

  143. Format : PGS

  144. Codec ID : S_HDMV/PGS

  145. Codec ID/Info : Picture based subtitle format used on BDs/HD-DVDs

  146. Duration : 2 h 14 min

  147. Bit rate : 15.7 kb/s

  148. Count of elements : 2908

  149. Stream size : 15.1 MiB (0%)

  150. Title : Cht/SUP 原盘繁体(HK)

  151. Language : Chinese

  152. Default : No

  153. Forced : No

  154. Text #5

  155. ID : 9

  156. Format : PGS

  157. Codec ID : S_HDMV/PGS

  158. Codec ID/Info : Picture based subtitle format used on BDs/HD-DVDs

  159. Duration : 2 h 14 min

  160. Bit rate : 73.4 kb/s

  161. Count of elements : 5004

  162. Stream size : 70.5 MiB (1%)

  163. Title : Eng/SUP Commentary

  164. Language : English

  165. Default : No

  166. Forced : No

  167. Text #6

  168. ID : 10

  169. Format : PGS

  170. Codec ID : S_HDMV/PGS

  171. Codec ID/Info : Picture based subtitle format used on BDs/HD-DVDs

  172. Duration : 2 h 14 min

  173. Bit rate : 42.5 kb/s

  174. Count of elements : 5035

  175. Stream size : 40.8 MiB (0%)

  176. Title : Cht/SUP 原盘繁体 Commentary

  177. Language : Chinese

  178. Default : No

  179. Forced : No

  180. Text #7

  181. ID : 11

  182. Format : PGS

  183. Codec ID : S_HDMV/PGS

  184. Codec ID/Info : Picture based subtitle format used on BDs/HD-DVDs

  185. Duration : 2 h 10 min

  186. Bit rate : 838 b/s

  187. Count of elements : 136

  188. Stream size : 801 KiB (0%)

  189. Title : Eng/SUP

  190. Language : English

  191. Default : No

  192. Forced : No

  193. Text #8

  194. ID : 12

  195. Format : PGS

  196. Codec ID : S_HDMV/PGS

  197. Codec ID/Info : Picture based subtitle format used on BDs/HD-DVDs

  198. Duration : 2 h 12 min

  199. Bit rate : 1 861 b/s

  200. Count of elements : 282

  201. Stream size : 1.77 MiB (0%)

  202. Title : Chs/SUP 原盘简体

  203. Language : Chinese

  204. Default : No

  205. Forced : No

  206. Text #9

  207. ID : 13

  208. Format : PGS

  209. Codec ID : S_HDMV/PGS

  210. Codec ID/Info : Picture based subtitle format used on BDs/HD-DVDs

  211. Duration : 2 h 12 min

  212. Bit rate : 696 b/s

  213. Count of elements : 168

  214. Stream size : 677 KiB (0%)

  215. Title : Cht/SUP 原盘繁体

  216. Language : Chinese

  217. Default : No

  218. Forced : No

  219. Menu

  220. 00:00:00.000 : en:第 01 章

  221. 00:06:56.291 : en:第 02 章

  222. 00:12:02.805 : en:第 03 章

  223. 00:19:12.360 : en:第 04 章

  224. 00:28:32.961 : en:第 05 章

  225. 00:33:11.698 : en:第 06 章

  226. 00:40:57.497 : en:第 07 章

  227. 00:48:34.036 : en:第 08 章

  228. 00:53:46.098 : en:第 09 章

  229. 01:01:57.339 : en:第 10 章

  230. 01:08:33.026 : en:第 11 章

  231. 01:16:46.769 : en:第 12 章

  232. 01:22:24.022 : en:第 13 章

  233. 01:31:21.434 : en:第 14 章

  234. 01:41:15.361 : en:第 15 章

  235. 01:50:56.483 : en:第 16 章

  236. 01:59:16.941 : en:第 17 章

  237. 02:02:43.648 : en:第 18 章


复制代码


TAGS 动作 冒险 科幻 /

磁力链:
  • magnet:?xt=urn:btih:FEA7BCB3FD17DDA674DDA5B2AD58DAF5471B0670
上传的附件:
BT9527电影天堂 1、BT9527电影天堂提供的BT文件均来源于互联网抓取,只供网友学习交流、技术提升使用。
2、我们遵守BitTorrent点对点协议原则,任何版权问题请联系原资源发布商,我们不处理任何版权纠纷,谢谢!如有争议请联系邮箱:BT9527#hotmail.com(#换成@)
3、如果您发现某页面或地址有错误,请联系站长邮箱BT9527#hotmail.com(#换成@),我们会尽快处理。您的热心是对BT9527电影天堂最大的支持。
4、本站建议去正规影院观看电影以支持电影行业发展。
最新回复 (0)

你可以在 登录 or 注册 后,对此帖发表评论!

返回
发新帖