神奇动物:邓布利多之谜[杜比视界版本][简繁英字幕].Fantastic.Beasts.The.Secrets.of.Dumbledore.2022.2160p.WEB-DL.DV.HEVC.Atmos.DDP5.1-OPT 24.69GB

版主小s 6月前 433



◎译  名 神奇动物:邓布利多之谜 / 神奇动物在哪里3:邓布利多之谜 / 神奇生物在哪里3 / 怪兽与邓不利多的秘密(港 / 台)
◎片  名 Fantastic Beasts: The Secrets of Dumbledore
◎年  代 2022
◎产  地 英国 / 美国
◎类  别 奇幻 / 冒险
◎语  言 英语 / 德语
◎上映日期 2022-04-08(英国/中国大陆) / 2022-04-15(美国)
◎IMDb链接 https://www.imdb.com/title/tt4123432/
◎豆瓣评分 6.0/10 (135831人评价)
◎豆瓣链接 https://movie.douban.com/subject/26147418/
◎片  长 142分钟
◎导  演 大卫·叶茨 David Yates (id:1275147)
◎编  剧 J. K. 罗琳 J. K. Rowling (id:1022772)
       史蒂夫·克洛夫斯 Steve Kloves (id:1107737)
◎演  员 埃迪·雷德梅恩 Eddie Redmayne (id:1010503)
       裘德·洛 Jude Law (id:1010510)
       麦斯·米科尔森 Mads Mikkelsen (id:1040529)
       丹·福勒 Dan Fogler (id:1027317)
       艾莉森·萨多尔 Alison Sudol (id:1350625)
       凯瑟琳·沃特斯顿 Katherine Waterston (id:1316589)
       埃兹拉·米勒 Ezra Miller (id:1313037)
       卡勒姆·特纳 Callum Turner (id:1328007)
       杰西卡·威廉姆斯 Jessica Williams (id:1189267)
       理查德·柯伊尔 Richard Coyle (id:1031846)
       波佩·科比-特曲 Poppy Corby-Tuech (id:1337282)
       维多利亚·耶茨 Victoria Yeates (id:1397745)
       威廉·纳迪兰 William Nadylam (id:1361420)
       奥利弗·马苏奇 Oliver Masucci (id:1356578)
       瓦莱丽·帕赫纳 Valerie Pachner (id:1376990)
       亚历山大·库兹涅佐夫 Aleksandr Kuznetsov (id:1400621)
       拉莫娜·库泽-莉比诺 Ramona Kunze-Libnow (id:1371863)
       马丽娅·费尔南达·康基多 Maria Fernanda Candido (id:1069306)
       戴夫·王 Dave Wong (id:1468526)
       维尔夫·斯科尔丁 Wilf Scolding (id:1422221)
       卢卡斯·英格兰德 Lucas Englander (id:1420361)
       菲奥娜·格拉斯科特 Fiona Glascott (id:1094753)
       马提亚斯·布伦纳 Matthias Brenner (id:1068895)
       彼得·西蒙尼舍克 Peter Simonischek (id:1155835)
       雅基·波特斯万 Jacqui Boatswain (id:1278852)
       赫柏·贝尔德索尔 Hebe Beardsall (id:1315461)
       曼努埃尔·克莱因 Manuel Klein (id:1107683)
       凯文·格思里 Kevin Guthrie (id:1335226)
       詹姆斯·纽顿·霍华德 James Newton Howard (id:1019135)
       乔治·瑞奇蒙 George Richmond (id:1434359)
       柯琳·阿特伍德 Colleen Atwood (id:1277560)

◎简  介
  阿不思·邓布利多教授(裘德·洛 饰)意识到强大的黑巫师盖勒特·格林德沃(麦斯·米科尔森 饰)正试图夺取魔法世界的控制权。邓布利多了解仅凭他一人之力,将无法阻止格林德沃,于是他委托魔法动物学家纽特·斯卡曼德(埃迪·雷德梅恩 饰)带领一支精良的团队——成员包括男巫、女巫及一位勇敢的麻瓜面包师,来共同执行这项危险任务。一路上他们会遇到各式各样的神奇动物,既有老朋友,也有前所未见的神秘生物;同时他们也随时会与格林德沃不断壮大的追随者发生冲突。这次行动的风险是如此之高……邓布利多还能袖手旁观多久?

  1. ##### MediaInfo ######
  2. General
  3. Unique ID                                : 160299656362646328608254718871232516307 (0x7898974065CDA159F10A5E5FDDE710D3)
  4. Complete name                            : Fantastic.Beasts.The.Secrets.of.Dumbledore.2022.2160p.MA.WEB-DL.DV.HDR.HEVC.Atmos.DDP5.1-OPT.mkv
  5. Format                                   : Matroska
  6. Format version                           : Version 4
  7. File size                                : 24.7 GiB
  8. Duration                                 : 2 h 22 min
  9. Overall bit rate                         : 24.8 Mb/s
  10. Movie name                               : Fantastic Beasts The Secrets of Dumbledore
  11. Encoded date                             : UTC 2022-05-31 22:50:13
  12. Writing application                      : mkvmerge v61.0.0 ('So') 64-bit
  13. Writing library                          : libebml v1.4.2 + libmatroska v1.6.4
  14. Cover                                    : Yes
  15. Attachments                              : Cover.jpg
  16. Video
  17. ID                                       : 1
  18. Format                                   : HEVC
  19. Format/Info                              : High Efficiency Video Coding
  20. Format profile                           : Main 10@L5@High
  21. HDR format                               : SMPTE ST 2086, HDR10 compatible
  22. Codec ID                                 : V_MPEGH/ISO/HEVC
  23. Duration                                 : 2 h 22 min
  24. Bit rate                                 : 23.9 Mb/s
  25. Width                                    : 3 840 pixels
  26. Height                                   : 2 160 pixels
  27. Display aspect ratio                     : 16:9
  28. Frame rate mode                          : Constant
  29. Frame rate                               : 23.976 (24000/1001/53354) FPS
  30. Color space                              : YUV
  31. Chroma subsampling                       : 4:2:0 (Type 2)
  32. Bit depth                                : 10 bits
  33. Bits/(Pixel*Frame)                       : 0.120
  34. Stream size                              : 23.9 GiB (97%)
  35. Default                                  : Yes
  36. Forced                                   : No
  37. Color range                              : Limited
  38. Color primaries                          : BT.2020
  39. Transfer characteristics                 : PQ
  40. Matrix coefficients                      : BT.2020 non-constant
  41. Mastering display color primaries        : Display P3
  42. Mastering display luminance              : min: 0.0001 cd/m2, max: 1000 cd/m2
  43. Maximum Content Light Level              : 500 cd/m2
  44. Maximum Frame-Average Light Level        : 54 cd/m2
  45. Audio
  46. ID                                       : 2
  47. Format                                   : E-AC-3 JOC
  48. Format/Info                              : Enhanced AC-3 with Joint Object Coding
  49. Commercial name                          : Dolby Digital Plus with Dolby Atmos
  50. Codec ID                                 : A_EAC3
  51. Duration                                 : 2 h 22 min
  52. Bit rate mode                            : Constant
  53. Bit rate                                 : 768 kb/s
  54. Channel(s)                               : 6 channels
  55. Channel layout                           : L R C LFE Ls Rs
  56. Sampling rate                            : 48.0 kHz
  57. Frame rate                               : 31.250 FPS (1536 SPF)
  58. Compression mode                         : Lossy
  59. Stream size                              : 784 MiB (3%)
  60. Language                                 : English
  61. Service kind                             : Complete Main
  62. Default                                  : Yes
  63. Forced                                   : No
  64. Complexity index                         : 16
  65. Number of dynamic objects                : 15
  66. Bed channel count                        : 1 channel
  67. Bed channel configuration                : LFE
  68. Text #1
  69. ID                                       : 3
  70. Format                                   : UTF-8
  71. Codec ID                                 : S_TEXT/UTF8
  72. Codec ID/Info                            : UTF-8 Plain Text
  73. Duration                                 : 2 h 11 min
  74. Bit rate                                 : 35 b/s
  75. Count of elements                        : 1348
  76. Stream size                              : 34.4 KiB (0%)
  77. Language                                 : English
  78. Default                                  : No
  79. Forced                                   : No
  80. Text #2
  81. ID                                       : 4
  82. Format                                   : UTF-8
  83. Codec ID                                 : S_TEXT/UTF8
  84. Codec ID/Info                            : UTF-8 Plain Text
  85. Duration                                 : 2 h 20 min
  86. Bit rate                                 : 44 b/s
  87. Count of elements                        : 1868
  88. Stream size                              : 46.0 KiB (0%)
  89. Title                                    : SDH
  90. Language                                 : English
  91. Default                                  : No
  92. Forced                                   : No
  93. Text #3
  94. ID                                       : 5
  95. Format                                   : UTF-8
  96. Codec ID                                 : S_TEXT/UTF8
  97. Codec ID/Info                            : UTF-8 Plain Text
  98. Duration                                 : 2 h 21 min
  99. Bit rate                                 : 31 b/s
  100. Count of elements                        : 1229
  101. Stream size                              : 32.2 KiB (0%)
  102. Language                                 : Spanish
  103. Default                                  : No
  104. Forced                                   : No
  105. Text #4
  106. ID                                       : 6
  107. Format                                   : UTF-8
  108. Codec ID                                 : S_TEXT/UTF8
  109. Codec ID/Info                            : UTF-8 Plain Text
  110. Duration                                 : 2 h 21 min
  111. Bit rate                                 : 32 b/s
  112. Count of elements                        : 1222
  113. Stream size                              : 33.7 KiB (0%)
  114. Title                                    : Latin American
  115. Language                                 : Spanish
  116. Default                                  : No
  117. Forced                                   : No
  118. Text #5
  119. ID                                       : 7
  120. Format                                   : UTF-8
  121. Codec ID                                 : S_TEXT/UTF8
  122. Codec ID/Info                            : UTF-8 Plain Text
  123. Duration                                 : 2 h 21 min
  124. Bit rate                                 : 30 b/s
  125. Count of elements                        : 1212
  126. Stream size                              : 31.2 KiB (0%)
  127. Language                                 : French
  128. Default                                  : No
  129. Forced                                   : No
  130. Text #6
  131. ID                                       : 8
  132. Format                                   : UTF-8
  133. Codec ID                                 : S_TEXT/UTF8
  134. Codec ID/Info                            : UTF-8 Plain Text
  135. Duration                                 : 2 h 21 min
  136. Bit rate                                 : 37 b/s
  137. Count of elements                        : 1380
  138. Stream size                              : 39.0 KiB (0%)
  139. Title                                    : Canadian
  140. Language                                 : French
  141. Default                                  : No
  142. Forced                                   : No
  143. Text #7
  144. ID                                       : 9
  145. Format                                   : UTF-8
  146. Codec ID                                 : S_TEXT/UTF8
  147. Codec ID/Info                            : UTF-8 Plain Text
  148. Duration                                 : 2 h 21 min
  149. Bit rate                                 : 28 b/s
  150. Count of elements                        : 1227
  151. Stream size                              : 29.5 KiB (0%)
  152. Title                                    : 繁体中字
  153. Language                                 : Chinese
  154. Default                                  : No
  155. Forced                                   : No
  156. Text #8
  157. ID                                       : 10
  158. Format                                   : UTF-8
  159. Codec ID                                 : S_TEXT/UTF8
  160. Codec ID/Info                            : UTF-8 Plain Text
  161. Duration                                 : 2 h 22 min
  162. Bit rate                                 : 33 b/s
  163. Count of elements                        : 1338
  164. Stream size                              : 35.1 KiB (0%)
  165. Title                                    : 简体中字
  166. Language                                 : Chinese
  167. Default                                  : No
  168. Forced                                   : No
  169. Text #9
  170. ID                                       : 11
  171. Format                                   : UTF-8
  172. Codec ID                                 : S_TEXT/UTF8
  173. Codec ID/Info                            : UTF-8 Plain Text
  174. Duration                                 : 2 h 21 min
  175. Bit rate                                 : 29 b/s
  176. Count of elements                        : 1155
  177. Stream size                              : 30.3 KiB (0%)
  178. Title                                    : 繁体中字
  179. Language                                 : Chinese
  180. Default                                  : No
  181. Forced                                   : No
  182. Text #10
  183. ID                                       : 12
  184. Format                                   : PGS
  185. Muxing mode                              : zlib
  186. Codec ID                                 : S_HDMV/PGS
  187. Codec ID/Info                            : Picture based subtitle format used on BDs/HD-DVDs
  188. Duration                                 : 2 h 12 min
  189. Bit rate                                 : 23.9 kb/s
  190. Count of elements                        : 2307
  191. Stream size                              : 22.6 MiB (0%)
  192. Title                                    : 简体中字
  193. Language                                 : Chinese
  194. Default                                  : Yes
  195. Forced                                   : No
  196. Text #11
  197. ID                                       : 13
  198. Format                                   : PGS
  199. Muxing mode                              : zlib
  200. Codec ID                                 : S_HDMV/PGS
  201. Codec ID/Info                            : Picture based subtitle format used on BDs/HD-DVDs
  202. Duration                                 : 2 h 12 min
  203. Bit rate                                 : 24.6 kb/s
  204. Count of elements                        : 2307
  205. Stream size                              : 23.2 MiB (0%)
  206. Title                                    : 繁体中字
  207. Language                                 : Chinese
  208. Default                                  : Yes
  209. Forced                                   : No
  210. Text #12
  211. ID                                       : 14
  212. Format                                   : PGS
  213. Muxing mode                              : zlib
  214. Codec ID                                 : S_HDMV/PGS
  215. Codec ID/Info                            : Picture based subtitle format used on BDs/HD-DVDs
  216. Duration                                 : 2 h 11 min
  217. Bit rate                                 : 35.6 kb/s
  218. Count of elements                        : 2413
  219. Stream size                              : 33.6 MiB (0%)
  220. Title                                    : 简英双语
  221. Language                                 : Chinese
  222. Default                                  : Yes
  223. Forced                                   : No
  224. Text #13
  225. ID                                       : 15
  226. Format                                   : PGS
  227. Muxing mode                              : zlib
  228. Codec ID                                 : S_HDMV/PGS
  229. Codec ID/Info                            : Picture based subtitle format used on BDs/HD-DVDs
  230. Duration                                 : 2 h 11 min
  231. Bit rate                                 : 36.0 kb/s
  232. Count of elements                        : 2413
  233. Stream size                              : 33.9 MiB (0%)
  234. Title                                    : 繁英双语
  235. Language                                 : Chinese
  236. Default                                  : Yes
  237. Forced                                   : No
  238. Menu
  239. 00:00:00.000                             : 1
  240. 00:10:32.000                             : 2
  241. 00:21:46.000                             : 3
  242. 00:28:12.000                             : 4
  243. 00:37:47.000                             : 5
  244. 00:47:38.000                             : 6
  245. 00:59:59.000                             : 7
  246. 01:10:47.000                             : 8
  247. 01:18:46.000                             : 9
  248. 01:30:05.000                             : 10
  249. 01:39:44.000                             : 11
  250. 01:49:24.000                             : 12
  251. 01:56:44.000                             : 13
  252. 02:07:10.000                             : 14
  253. 02:13:09.000                             : 15


TAGS 奇幻 冒险 /

磁力链:
  • magnet:?xt=urn:btih:928E58D96020F4B52A1876943543434360B63354
上传的附件:
BT9527电影天堂 1、BT9527电影天堂提供的BT文件均来源于互联网抓取,只供网友学习交流、技术提升使用。
2、我们遵守BitTorrent点对点协议原则,任何版权问题请联系原资源发布商,我们不处理任何版权纠纷,谢谢!如有争议请联系邮箱:BT9527#hotmail.com(#换成@)
3、如果您发现某页面或地址有错误,请联系站长邮箱BT9527#hotmail.com(#换成@),我们会尽快处理。您的热心是对BT9527电影天堂最大的支持。
4、本站建议去正规影院观看电影以支持电影行业发展。
最新回复 (0)

你可以在 登录 or 注册 后,对此帖发表评论!

返回
发新帖