和平饭店[国粤英多音轨/简繁英字幕].Peace.Hotel.1995.BluRay.1080p.2Audio.TrueHD.5.1.x265.10bit-ALT 12.08GB

版主小s 6月前 395

◎译 名 和平饭店 / 老板的故事 / The Peace Hotel / Peace Hotel

◎片 名 和平飯店

◎年 代 1995

◎产 地 中国香港

◎类 别 动作 / 西部

◎语 言 粤语

◎上映日期 1995-04-12

◎IMDb链接 https://www.imdb.com/title/tt0113292/

◎豆瓣评分 7.7/10 (61368人评价)

◎豆瓣链接 https://movie.douban.com/subject/1293867/

◎片 长 89 分钟

◎导 演 韦家辉 Ka-Fai Wai (id:1017843)

◎编 剧 韦家辉 Ka-Fai Wai (id:1017843)

周润发 Yun-Fat Chow (id:1044899)

◎演 员 周润发 Yun-Fat Chow (id:1044899)

叶童 Cecilia Yip (id:1033481)

秦豪 Ho Chin (id:1332560)

刘洵 Shun Lau (id:1274304)

吴倩莲 Chien-lien Wu (id:1166703)

刘晓彤 Bell Lau Hiu Tung (id:1350289)

李兆基 Siu-Kei Lee (id:1275475)

鲁芬 Fun Lo (id:1316723)

冯国辉 Rankie Fung (id:1418359)

罗伟佳 Wai-Kai Law (id:1435881)

韩俊 Patrick Hon (id:1417935)

向叠 Heung Dip (id:1405401)

霍瑞华 Terrence Fok Shui-Wa (id:1343235)

宋本中 Boon-Chung Sung (id:1322129)

钱荣威 Wing-Wai Chin (id:1418361)

吴宇森 John Woo (id:1027853)

潘健康 Healthy Poon (id:1294730)

黄嘉倩 Cacine Wong (id:1301182)

黄永恒 Wing-Hung Wong (id:1300411)

姚惠明 Wai Ming Yau (id:1301443)

邱伟明 Alfred Yau (id:1301442)

吴里璐 Dora Ng (id:1289270)

马玉成 Yuk-Sing Ma (id:1290582)

元彬 Bun Yuen (id:1278657)

彭羚 Cass Phang (id:1376325)

◎简 介

江湖杀手阿平(周润发 饰)是和平饭店的老板,传闻他武功了得,曾经一口气杀了二百多个马贼,并且他宣称和平饭店是一个“避难所”,只要进来住宿的人,无论他得罪了什么帮派,都不许前来挑衅生事,但不保证离开后的安全。

歌女阿曼(叶童 饰)的到来打破了这个江湖规矩。阿曼被人追杀,逃至和平饭店。她风情万千,令阿平心生爱意并设法保护她离开饭店,躲避追杀。然而,阿平的用情换来了一个早已布下的陷阱:原来阿曼正是这个陷阱的诱饵!

愤怒的阿平决定拿起武器重出江湖,一场腥风血雨的厮杀大肆铺开。

◎获奖情况 (共7项)

第15届香港电影金像奖 (1996)

最佳男主角(提名)

└──周润发 (id:1044899)

最佳女主角(提名)

└──叶童 (id:1033481)

最佳摄影(提名)

└──黄永恒 (id:1300411)

最佳美术指导(提名)

最佳服装造型设计(提名)

└──吴里璐 (id:1289270)

最佳原创电影音乐(提名)

最佳原创电影歌曲

  1. ##### MediaInfo ######

  2. General

  3. Unique ID : 88783948334792243952854763595144329578 (0x42CB2A9DA3C1CF4C622A910A9D43796A)

  4. Complete name : Peace.Hotel.1995.BluRay.1080p.2Audio.TrueHD.5.1.x265.10bit-ALT.mkv

  5. Format : Matroska

  6. Format version : Version 4

  7. File size : 12.1 GiB

  8. Duration : 1 h 30 min

  9. Overall bit rate mode : Variable

  10. Overall bit rate : 19.1 Mb/s

  11. Encoded date : UTC 2022-06-02 04:55:50

  12. Writing application : mkvmerge v49.0.0 ('Sick Of Losing Soulmates') 64-bit

  13. Writing library : libebml v1.4.0 + libmatroska v1.6.1

  14. Video

  15. ID : 1

  16. Format : HEVC

  17. Format/Info : High Efficiency Video Coding

  18. Format profile : Main 10@L5.1@High

  19. Codec ID : V_MPEGH/ISO/HEVC

  20. Duration : 1 h 30 min

  21. Bit rate : 10.8 Mb/s

  22. Width : 1 920 pixels

  23. Height : 1 080 pixels

  24. Display aspect ratio : 16:9

  25. Frame rate mode : Constant

  26. Frame rate : 24.000 FPS

  27. Color space : YUV

  28. Chroma subsampling : 4:2:0

  29. Bit depth : 10 bits

  30. Bits/(Pixel*Frame) : 0.216

  31. Stream size : 6.80 GiB (56%)

  32. Title : HEVC, x265Main10@L5.1@High, 24 fps @ 10755 kbps

  33. Writing library : x265 3.5+36-1f2c8da77:[Windows][GCC 11.2.0][64 bit] 10bit

  34. Encoding settings : cpuid=533541049071 / frame-threads=3 / numa-pools=8 / wpp / no-pmode / no-pme / no-psnr / no-ssim / log-level=2 / input-csp=1 / input-res=1920x1080 / interlace=0 / total-frames=130385 / level-idc=51 / high-tier=1 / uhd-bd=0 / ref=5 / no-allow-non-conformance / no-repeat-headers / annexb / no-aud / no-eob / no-eos / no-hrd / info / hash=0 / no-temporal-layers / open-gop / min-keyint=24 / keyint=240 / gop-lookahead=0 / bframes=6 / b-adapt=2 / b-pyramid / bframe-bias=0 / rc-lookahead=40 / lookahead-slices=0 / NTMzNTQ=uuDQuD2mJt9fsCf / scenecut=40 / no-hist-scenecut / radl=0 / no-splice / no-intra-refresh / ctu=32 / min-cu-size=8 / no-rect / no-amp / max-tu-size=32 / tu-inter-depth=3 / tu-intra-depth=3 / limit-tu=4 / rdoq-level=2 / dynamic-rd=0.00 / no-ssim-rd / signhide / no-tskip / nr-intra=0 / nr-inter=0 / no-constrained-intra / no-strong-intra-smoothing / max-merge=4 / limit-refs=1 / limit-modes / me=3 / subme=4 / merange=25 / temporal-mvp / no-frame-dup / no-hme / weightp / weightb / no-analyze-src-pics / deblock=-3:-3 / no-sao / no-sao-non-deblock / rd=6 / selective-sao=0 / no-early-skip / rskip / no-fast-intra / no-tskip-fast / no-cu-lossless / b-intra / no-splitrd-skip / rdpenalty=0 / psy-rd=2.00 / psy-rdoq=1.00 / no-rd-refine / no-lossless / cbqpoffs=-2 / crqpoffs=-2 / rc=crf / crf=18.5 / qcomp=0.65 / qpstep=4 / stats-write=0 / stats-read=0 / vbv-maxrate=80000 / vbv-bufsize=80000 / vbv-init=0.9 / min-vbv-fullness=50.0 / max-vbv-fullness=80.0 / crf-max=0.0 / crf-min=0.0 / ipratio=1.40 / pbratio=1.30 / aq-mode=2 / aq-strength=0.85 / cutree / zone-count=0 / no-strict-cbr / qg-size=32 / no-rc-grain / qpmax=69 / qpmin=0 / no-const-vbv / sar=1 / overscan=0 / videoformat=5 / range=0 / colorprim=1 / transfer=1 / colormatrix=1 / chromaloc=0 / display-window=0 / cll=0,0 / min-luma=0 / max-luma=1023 / log2-max-poc-lsb=8 / vui-timing-info / vui-hrd-info / slices=1 / no-opt-qp-pps / no-opt-ref-list-length-pps / no-multi-pass-opt-rps / scenecut-bias=0.05 / hist-threshold=0.03 / no-opt-cu-delta-qp / no-aq-motion / no-hdr10 / no-hdr10-opt / no-dhdr10-opt / no-idr-recovery-sei / analysis-reuse-level=0 / analysis-save-reuse-level=0 / analysis-load-reuse-level=0 / scale-factor=0 / refine-intra=0 / refine-inter=0 / refine-mv=1 / refine-ctu-distortion=0 / no-limit-sao / ctu-info=0 / no-lowpass-dct / refine-analysis-type=0 / copy-pic=1 / max-ausize-factor=1.0 / no-dynamic-refine / no-single-sei / no-hevc-aq / no-svt / no-field / qp-adaptation-range=1.00 / scenecut-aware-qp=0conformance-window-offsets / right=0 / bottom=0 / NTMzNTQ= / decoder-max-rate=0 / no-vbv-live-multi-pass

  35. Language : English

  36. Default : Yes

  37. Forced : No

  38. Color range : Limited

  39. Color primaries : BT.709

  40. Transfer characteristics : BT.709

  41. Matrix coefficients : BT.709

  42. Audio #1

  43. ID : 2

  44. Format : MLP FBA

  45. Format/Info : Meridian Lossless Packing FBA

  46. Commercial name : Dolby TrueHD

  47. Codec ID : A_TRUEHD

  48. Duration : 1 h 30 min

  49. Bit rate mode : Variable

  50. Bit rate : 3 407 kb/s

  51. Maximum bit rate : 4 326 kb/s

  52. Channel(s) : 6 channels

  53. Channel layout : L R C LFE Ls Rs

  54. Sampling rate : 96.0 kHz

  55. Frame rate : 1 200.000 FPS (80 SPF)

  56. Compression mode : Lossless

  57. Stream size : 2.15 GiB (18%)

  58. Title : Cantonese Dolby TrueHD Audio 5.1 @ 4047 kbps

  59. Language : Chinese

  60. Default : Yes

  61. Forced : No

  62. Audio #2

  63. ID : 3

  64. Format : AC-3

  65. Format/Info : Audio Coding 3

  66. Commercial name : Dolby Digital

  67. Codec ID : A_AC3

  68. Duration : 1 h 30 min

  69. Bit rate mode : Constant

  70. Bit rate : 640 kb/s

  71. Channel(s) : 6 channels

  72. Channel layout : L R C LFE Ls Rs

  73. Sampling rate : 48.0 kHz

  74. Frame rate : 31.250 FPS (1536 SPF)

  75. Compression mode : Lossy

  76. Stream size : 414 MiB (3%)

  77. Title : Cantonese Dolby Digital Audio 5.1 @ 640 kbps

  78. Language : Chinese

  79. Service kind : Complete Main

  80. Default : No

  81. Forced : No

  82. Audio #3

  83. ID : 4

  84. Format : MLP FBA

  85. Format/Info : Meridian Lossless Packing FBA

  86. Commercial name : Dolby TrueHD

  87. Codec ID : A_TRUEHD

  88. Duration : 1 h 30 min

  89. Bit rate mode : Variable

  90. Bit rate : 3 446 kb/s

  91. Maximum bit rate : 4 440 kb/s

  92. Channel(s) : 6 channels

  93. Channel layout : L R C LFE Ls Rs

  94. Sampling rate : 96.0 kHz

  95. Frame rate : 1 200.000 FPS (80 SPF)

  96. Compression mode : Lossless

  97. Stream size : 2.18 GiB (18%)

  98. Title : Mandarin Dolby TrueHD Audio 5.1 @ 4086 kbps

  99. Language : Chinese

  100. Default : No

  101. Forced : No

  102. Audio #4

  103. ID : 5

  104. Format : AC-3

  105. Format/Info : Audio Coding 3

  106. Commercial name : Dolby Digital

  107. Codec ID : A_AC3

  108. Duration : 1 h 30 min

  109. Bit rate mode : Constant

  110. Bit rate : 640 kb/s

  111. Channel(s) : 6 channels

  112. Channel layout : L R C LFE Ls Rs

  113. Sampling rate : 48.0 kHz

  114. Frame rate : 31.250 FPS (1536 SPF)

  115. Compression mode : Lossy

  116. Stream size : 414 MiB (3%)

  117. Title : Mandarin Dolby Digital Audio 5.1 @ 640 kbps

  118. Language : Chinese

  119. Service kind : Complete Main

  120. Default : No

  121. Forced : No

  122. Text #1

  123. ID : 6

  124. Format : PGS

  125. Codec ID : S_HDMV/PGS

  126. Codec ID/Info : Picture based subtitle format used on BDs/HD-DVDs

  127. Duration : 1 h 27 min

  128. Bit rate : 25.5 kb/s

  129. Count of elements : 1301

  130. Stream size : 15.9 MiB (0%)

  131. Title : Cht/SUP 原盘繁体

  132. Language : Chinese

  133. Default : No

  134. Forced : No

  135. Text #2

  136. ID : 7

  137. Format : PGS

  138. Codec ID : S_HDMV/PGS

  139. Codec ID/Info : Picture based subtitle format used on BDs/HD-DVDs

  140. Duration : 1 h 27 min

  141. Bit rate : 24.8 kb/s

  142. Count of elements : 1303

  143. Stream size : 15.5 MiB (0%)

  144. Title : Chs/SUP 原盘简体

  145. Language : Chinese

  146. Default : Yes

  147. Forced : No

  148. Text #3

  149. ID : 8

  150. Format : PGS

  151. Codec ID : S_HDMV/PGS

  152. Codec ID/Info : Picture based subtitle format used on BDs/HD-DVDs

  153. Duration : 1 h 27 min

  154. Bit rate : 29.3 kb/s

  155. Count of elements : 1301

  156. Stream size : 18.3 MiB (0%)

  157. Title : Eng/SUP

  158. Language : English

  159. Default : No

  160. Forced : No

  161. Menu

  162. 00:00:00.000 : en:第 01 章

  163. 00:05:36.708 : en:第 02 章

  164. 00:14:06.292 : en:第 03 章

  165. 00:23:09.667 : en:第 04 章

  166. 00:30:11.708 : en:第 05 章

  167. 00:37:23.125 : en:第 06 章

  168. 00:46:27.125 : en:第 07 章

  169. 00:50:14.542 : en:第 08 章

  170. 00:57:52.250 : en:第 09 章

  171. 01:05:56.792 : en:第 10 章

  172. 01:15:39.667 : en:第 11 章

  173. 01:24:25.625 : en:第 12 章


复制代码


TAGS 动作 西部 /

磁力链:
  • magnet:?xt=urn:btih:D06CB2830EDC2C6AB9C70DED797E56B42A1EE093
上传的附件:
BT9527电影天堂 1、BT9527电影天堂提供的BT文件均来源于互联网抓取,只供网友学习交流、技术提升使用。
2、我们遵守BitTorrent点对点协议原则,任何版权问题请联系原资源发布商,我们不处理任何版权纠纷,谢谢!如有争议请联系邮箱:BT9527#hotmail.com(#换成@)
3、如果您发现某页面或地址有错误,请联系站长邮箱BT9527#hotmail.com(#换成@),我们会尽快处理。您的热心是对BT9527电影天堂最大的支持。
4、本站建议去正规影院观看电影以支持电影行业发展。
最新回复 (0)

你可以在 登录 or 注册 后,对此帖发表评论!

返回
发新帖