推销员[中文字幕].The.Salesman.2016.BluRay.1080p.x265.10bit-MiniHD 4.03GB

版主小s 6月前 419

◎译 名 推销员 / 伊朗式迁居(港) / 新居风暴(台) / The Salesman / Forushande / Seller

◎片 名 ???????

◎年 代 2016

◎产 地 伊朗 / 法国

◎类 别 剧情 / 悬疑 / 家庭

◎语 言 波斯语

◎上映日期 2016-05-21(戛纳电影节) / 2016-08-17(法国)

◎IMDb链接 https://www.imdb.com/title/tt5186714/

◎豆瓣评分 7.6/10 (30649人评价)

◎豆瓣链接 https://movie.douban.com/subject/26679552/

◎片 长 124分钟

◎导 演 阿斯哈·法哈蒂 Asghar Farhadi (id:1275094)

◎编 剧 阿斯哈·法哈蒂 Asghar Farhadi (id:1275094)

◎演 员 沙哈布·侯赛尼 Shahab Hosseini (id:1175128)

塔拉内·阿里多斯蒂 Taraneh Alidoosti (id:1017837)

巴巴克·卡里米 Babak Karimi (id:1314291)

法里德·萨贾蒂·侯赛尼 Farid Sajjadi Hosseini (id:1369575)

米娜·沙达蒂 Mina Sadati (id:1369572)

迈赫迪·库什基 Mehdi Koushki (id:1358417)

阿斯哈·法哈蒂 Asghar Farhadi (id:1275094)

◎简 介

尹麦德(沙哈布·侯赛尼 Shahab Hosseini 饰)是学校里教授文学的老师,同时,他和妻子蕾娜(塔兰涅·阿里多斯蒂 Taraneh Alidoosti 饰)一起在剧团里表演话剧,夫妻两人感情十分深厚。某日,两人所住的房子成为了危楼,随时都有倒塌的危险,无奈之下, 尹麦德和蕾娜只得临时找了另一个住所,匆匆入住。

某日,蕾娜提前回到家中,不想遭到了陌生男子的袭击晕倒在浴室之中,愤怒的尹麦德根据罪犯遗漏的车钥匙找到了一辆小货车,一路尾随至面包店。最终,尹麦德找到了罪魁祸首,却发现这个本性并不邪恶的老头,当时亦只是一念之差走错了路,并且对自己的所作所为充满了愧疚。尹麦德要求对方在自己的妻子和儿子面前坦白罪行,没想到却酿成了所有人都无法承受的惨痛后果。

◎获奖情况 (共12项)

第89届奥斯卡金像奖 (2017)

最佳外语片

└──阿斯哈·法哈蒂 (id:1275094)

第69届戛纳电影节 (2016)

主竞赛单元 金棕榈奖(提名)

└──阿斯哈·法哈蒂 (id:1275094)

主竞赛单元 最佳编剧

└──阿斯哈·法哈蒂 (id:1275094)

主竞赛单元 最佳男演员

└──沙哈布·侯赛尼 (id:1175128)

第74届金球奖 (2017)

电影类 最佳外语片(提名)

第71届英国电影学院奖 (2018)

电影奖 最佳非英语片(提名)

第11届亚洲电影大奖 (2017)

最佳编剧

└──阿斯哈·法哈蒂 (id:1275094)

第88届美国国家评论协会奖 (2016)

最佳外语片

└──阿斯哈·法哈蒂 (id:1275094)

第22届美国评论家选择电影奖 (2017)

最佳外语片(提名)

第21届金卫星奖 (2017)

电影部门 最佳外语片

第15届华盛顿影评人协会奖 (2016)

最佳外语片(提名)

第20届美国在线影评人协会奖 (2017)

最佳非英语片(提名)

  1. ##### MediaInfo ######

  2. General

  3. Unique ID : 191650124022185238918029210972421756666 (0x902E78A52656E8F49B13AC29051616FA)

  4. Complete name : The.Salesman.2016.BluRay.1080p.x265.10bit-MiniHD.mkv

  5. Format : Matroska

  6. Format version : Version 4

  7. File size : 4.02 GiB

  8. Duration : 2 h 3 min

  9. Overall bit rate : 4 662 kb/s

  10. Encoded date : UTC 2017-03-29 10:01:59

  11. Writing application : mkvmerge v9.7.1 ('Pandemonium') 64bit

  12. Writing library : libebml v1.3.4 + libmatroska v1.4.5

  13. Video

  14. ID : 1

  15. Format : HEVC

  16. Format/Info : High Efficiency Video Coding

  17. Format profile : Main 10@L4@Main

  18. Codec ID : V_MPEGH/ISO/HEVC

  19. Duration : 2 h 3 min

  20. Bit rate : 3 929 kb/s

  21. Width : 1 920 pixels

  22. Height : 1 038 pixels

  23. Display aspect ratio : 1.85:1

  24. Frame rate mode : Constant

  25. Frame rate : 23.976 (24000/1001/53354) FPS

  26. Color space : YUV

  27. Chroma subsampling : 4:2:0

  28. Bit depth : 10 bits

  29. Bits/(Pixel*Frame) : 0.082

  30. Stream size : 3.39 GiB (84%)

  31. Writing library : x265 2.3+24-a0eee4b41185:[Windows][GCC 6.3.0][64 bit] 10bit

  32. Encoding settings : cpuid=533541173503 / frame-threads=6 / numa-pools=36 / wpp / no-pmode / no-pme / no-psnr / no-ssim / log-level=2 / input-csp=1 / input-res=1920x1038 / interlace=0 / total-frames=177790 / level-idc=0 / high-tier=1 / uhd-bd=0 / ref=5 / no-allow-non-conformance / no-repeat-headers / annexb / no-aud / no-hrd / info / hash=0 / no-temporal-layers / no-open-gop / min-keyint=1 / keyint=360 / bframes=8 / b-adapt=2 / b-pyramid / bframe-bias=0 / rc-lookahead=60 / lookahead-slices=4 / NTMzNTQ=uuDQuD2mJt9fsCf / scenecut=40 / no-intra-refresh / ctu=32 / min-cu-size=8 / rect / no-amp / max-tu-size=16 / tu-inter-depth=2 / tu-intra-depth=2 / limit-tu=4 / rdoq-level=2 / dynamic-rd=0.00 / signhide / no-tskip / nr-intra=0 / nr-inter=0 / no-constrained-intra / no-strong-intra-smoothing / max-merge=3 / limit-refs=2 / limit-modes / me=3 / subme=5 / merange=25 / temporal-mvp / weightp / weightb / no-analyze-src-pics / deblock=-1:-1 / no-sao / no-sao-non-deblock / rd=4 / no-early-skip / rskip / no-fast-intra / no-tskip-fast / no-cu-lossless / b-intra / rdpenalty=1 / psy-rd=0.00 / psy-rdoq=5.00 / no-rd-refine / analysis-mode=0 / no-lossless / cbqpoffs=-2 / crqpoffs=-2 / rc=crf / crf=19.0 / qcomp=0.65 / qpstep=4 / stats-write=0 / stats-read=0 / ipratio=1.40 / pbratio=1.30 / aq-mode=2 / aq-strength=0.80 / cutree / zone-count=0 / no-strict-cbr / qg-size=16 / no-rc-grain / qpmax=69 / qpmin=0 / sar=0 / overscan=0 / videoformat=5 / range=0 / colorprim=1 / transfer=2 / colormatrix=2 / chromaloc=0 / display-window=0 / max-cll=0,0 / min-luma=0 / max-luma=1023 / log2-max-poc-lsb=8 / vui-timing-info / vui-hrd-info / slices=1 / opt-qp-pps / opt-ref-list-length-pps / no-multi-pass-opt-rps / scenecut-bias=0.05 / no-opt-cu-delta-qp / no-aq-motion / no-hdr / no-hdr-opt / refine-level=5

  33. Default : Yes

  34. Forced : No

  35. Color range : Limited

  36. Color primaries : BT.709

  37. Audio

  38. ID : 2

  39. Format : AC-3

  40. Format/Info : Audio Coding 3

  41. Commercial name : Dolby Digital

  42. Codec ID : A_AC3

  43. Duration : 2 h 3 min

  44. Bit rate mode : Constant

  45. Bit rate : 640 kb/s

  46. Channel(s) : 6 channels

  47. Channel layout : L R C LFE Ls Rs

  48. Sampling rate : 48.0 kHz

  49. Frame rate : 31.250 FPS (1536 SPF)

  50. Compression mode : Lossy

  51. Stream size : 566 MiB (14%)

  52. Language : Persian

  53. Service kind : Complete Main

  54. Default : Yes

  55. Forced : No

  56. Text #1

  57. ID : 3

  58. Format : PGS

  59. Muxing mode : zlib

  60. Codec ID : S_HDMV/PGS

  61. Codec ID/Info : Picture based subtitle format used on BDs/HD-DVDs

  62. Language : Chinese

  63. Default : Yes

  64. Forced : No

  65. Text #2

  66. ID : 4

  67. Format : PGS

  68. Muxing mode : zlib

  69. Codec ID : S_HDMV/PGS

  70. Codec ID/Info : Picture based subtitle format used on BDs/HD-DVDs

  71. Language : Chinese

  72. Default : No

  73. Forced : No

  74. Menu

  75. 00:00:00.000 : en:Chapter 01

  76. 00:09:48.170 : en:Chapter 02

  77. 00:23:05.342 : en:Chapter 03

  78. 00:34:07.295 : en:Chapter 04

  79. 00:45:11.208 : en:Chapter 05

  80. 00:57:17.475 : en:Chapter 06

  81. 01:04:20.523 : en:Chapter 07

  82. 01:13:16.850 : en:Chapter 08

  83. 01:22:28.443 : en:Chapter 09

  84. 01:38:01.876 : en:Chapter 10

  85. 01:49:04.871 : en:Chapter 11

  86. 02:01:13.849 : en:Chapter 12


复制代码


TAGS 剧情 悬疑 家庭 /

磁力链:
  • magnet:?xt=urn:btih:A224B53CE99BD4F213F92BF9E2569AE2306DD5F2
上传的附件:
BT9527电影天堂 1、BT9527电影天堂提供的BT文件均来源于互联网抓取,只供网友学习交流、技术提升使用。
2、我们遵守BitTorrent点对点协议原则,任何版权问题请联系原资源发布商,我们不处理任何版权纠纷,谢谢!如有争议请联系邮箱:BT9527#hotmail.com(#换成@)
3、如果您发现某页面或地址有错误,请联系站长邮箱BT9527#hotmail.com(#换成@),我们会尽快处理。您的热心是对BT9527电影天堂最大的支持。
4、本站建议去正规影院观看电影以支持电影行业发展。
最新回复 (0)

你可以在 登录 or 注册 后,对此帖发表评论!

返回
发新帖