提防小手[国粤多音轨/简繁英字幕].Carry.on.Pickpocket.1982.BluRay.1080p.x265.10bit.2Audio-MiniHD 5.72GB

版主小s 6月前 428

◎译 名 提防小手 / Carry On Pickpocket

◎年 代 1982

◎产 地 中国香港

◎类 别 剧情 / 喜剧 / 动作 / 犯罪

◎语 言 粤语

◎上映日期 1982-03-31

◎IMDb链接 https://www.imdb.com/title/tt0083828/

◎豆瓣评分 7.1/10 (2426人评价)

◎豆瓣链接 https://movie.douban.com/subject/1298310/

◎片 长 100分钟

◎导 演 洪金宝 Sammo Hung Kam-Bo (id:1055887)

◎编 剧 黄炳耀 Barry Wong (id:1014964)

◎演 员 洪金宝 Sammo Hung Kam-Bo (id:1055887)

陈勋奇 Frankie Chan (id:1280419)

叶德娴 Deanie Ip (id:1016864)

吴耀汉 Richard Ng (id:1037408)

陈百祥 Pak-cheung Chan (id:1070608)

午马 Wu Ma (id:1054282)

元彪 Biao Yuen (id:1163752)

曹达华 Tat-wah Cho (id:1070438)

狄威 Dick Wei (id:1318441)

陆剑明 Jamie Luk (id:1290446)

田俊 James Tien Chun (id:1352930)

冯敬文 Ging Man Fung (id:1341397)

陈龙 Peter Chan Lung (id:1321791)

刘克宣 Hark-Sun Lau (id:1340134)

丁羽 Yu Ting (id:1052303)

刘准 Cheun Lau (id:1429075)

彭润祥 Yun-chiang Peng (id:1431212)

张炳灿 Bing-chan Cheung (id:1411109)

猛丁哥 Ting-gor Mang (id:1431211)

陈植槐 Chik Wai Chan (id:1432763)

刘观伟 Ricky Lau (id:1038428)

张耀宗 Peter Cheung (id:1280650)

钱升玮 Wellson Chin (id:1015143)

林正英 Ching-Ying Lam (id:1016823)

◎简 介

扒窃老手金师傅(刘克宣 饰)带着女儿安妮(彭秀霞 饰)和两个徒弟米缸(洪金宝 饰)与烟通(陈勋奇 饰),常年在闹市做着无本生意,师徒几人配合娴熟,从无失手。这日,米缸和烟通二人去舞厅勾女,颇有几许纯情做派的米缸对独坐一隅的女子亚玲(叶德娴 饰)一见倾心,两人待有进一步的发展却被一场殴斗打断。吴沙展(吴耀汉 饰)一心想逮捕米缸师徒,但无奈他身手笨拙,本是执行任务却被米缸与烟通搅黄。未几,一个犯罪团伙对米缸师徒的扒窃能力颇为欣赏,意欲购买他们偷回的身份证,师兄弟受制于人不得不完成了这次任务。亚玲找到米缸,声称自己是警方卧底,请求后者协助办案,偷走接赃集团收购的钻石,这令米缸师徒等人陷入了一场连环阴谋……

◎获奖情况 (共1项)

第2届香港电影金像奖 (1983)

最佳男主角

└──洪金宝 (id:1055887)

  1. ##### MediaInfo ######

  2. General

  3. Unique ID : 203081634803270506148957281722413901339 (0x98C819A43C178FA9A2AC93466A84661B)

  4. Complete name : Carry.on.Pickpocket.1982.BluRay.1080p.x265.10bit.2Audio-MiniHD.mkv

  5. Format : Matroska

  6. Format version : Version 4

  7. File size : 5.72 GiB

  8. Duration : 1 h 39 min

  9. Overall bit rate : 8 202 kb/s

  10. Encoded date : UTC 2017-11-30 04:55:18

  11. Writing application : mkvmerge v16.0.0 ('Protest') 32-bit

  12. Writing library : libebml v1.3.5 + libmatroska v1.4.8

  13. Video

  14. ID : 3

  15. Format : HEVC

  16. Format/Info : High Efficiency Video Coding

  17. Format profile : Main 10@L4@Main

  18. Codec ID : V_MPEGH/ISO/HEVC

  19. Duration : 1 h 39 min

  20. Bit rate : 7 207 kb/s

  21. Width : 1 920 pixels

  22. Height : 818 pixels

  23. Display aspect ratio : 2.35:1

  24. Frame rate mode : Constant

  25. Frame rate : 24.000 FPS

  26. Color space : YUV

  27. Chroma subsampling : 4:2:0

  28. Bit depth : 10 bits

  29. Bits/(Pixel*Frame) : 0.191

  30. Stream size : 5.02 GiB (88%)

  31. Writing library : x265 2.5+2-18fa144d453e:[Windows][GCC 7.1.0][64 bit] 10bit

  32. Encoding settings : cpuid=533541173503 / frame-threads=3 / numa-pools=8 / wpp / no-pmode / no-pme / no-psnr / no-ssim / log-level=2 / input-csp=1 / input-res=1920x818 / interlace=0 / total-frames=143684 / level-idc=0 / high-tier=1 / uhd-bd=0 / ref=5 / no-allow-non-conformance / no-repeat-headers / annexb / no-aud / no-hrd / info / hash=0 / no-temporal-layers / no-open-gop / min-keyint=1 / keyint=360 / bframes=8 / b-adapt=2 / b-pyramid / bframe-bias=0 / rc-lookahead=40 / lookahead-slices=4 / NTMzNTQ=uuDQuD2mJt9fsCf / scenecut=40 / no-intra-refresh / ctu=32 / min-cu-size=8 / rect / no-amp / max-tu-size=16 / tu-inter-depth=2 / tu-intra-depth=2 / limit-tu=4 / rdoq-level=1 / dynamic-rd=0.00 / ssim-rd / signhide / no-tskip / nr-intra=0 / nr-inter=0 / no-constrained-intra / no-strong-intra-smoothing / max-merge=3 / limit-refs=2 / limit-modes / me=3 / subme=5 / merange=25 / temporal-mvp / weightp / weightb / no-analyze-src-pics / deblock=-1:-1 / no-sao / no-sao-non-deblock / rd=4 / no-early-skip / rskip / no-fast-intra / no-tskip-fast / no-cu-lossless / b-intra / rdpenalty=1 / psy-rd=0.00 / psy-rdoq=3.00 / no-rd-refine / analysis-reuse-mode=0 / no-lossless / cbqpoffs=-2 / crqpoffs=-2 / rc=crf / crf=20.0 / qcomp=0.70 / qpstep=4 / stats-write=0 / stats-read=0 / ipratio=1.40 / pbratio=1.30 / aq-mode=2 / aq-strength=0.80 / cutree / zone-count=0 / no-strict-cbr / qg-size=16 / no-rc-grain / qpmax=69 / qpmin=0 / no-const-vbv / sar=1 / overscan=0 / videoformat=5 / range=0 / colorprim=1 / transfer=2 / colormatrix=2 / chromaloc=0 / display-window=0 / max-cll=0,0 / min-luma=0 / max-luma=1023 / log2-max-poc-lsb=8 / vui-timing-info / vui-hrd-info / slices=1 / opt-qp-pps / opt-ref-list-length-pps / no-multi-pass-opt-rps / scenecut-bias=0.05 / no-opt-cu-delta-qp / no-aq-motion / no-hdr / no-hdr-opt / no-dhdr10-opt / analysis-reuse-level=5 / scale-factor=0 / refine-intra=0 / refine-inter=0 / refine-mv=0 / no-limit-sao / ctu-info=0

  33. Default : Yes

  34. Forced : No

  35. Color range : Limited

  36. Color primaries : BT.709

  37. Audio #1

  38. ID : 1

  39. Format : AC-3

  40. Format/Info : Audio Coding 3

  41. Commercial name : Dolby Digital

  42. Codec ID : A_AC3

  43. Duration : 1 h 39 min

  44. Bit rate mode : Constant

  45. Bit rate : 640 kb/s

  46. Channel(s) : 2 channels

  47. Channel layout : L R

  48. Sampling rate : 48.0 kHz

  49. Frame rate : 31.250 FPS (1536 SPF)

  50. Compression mode : Lossy

  51. Stream size : 457 MiB (8%)

  52. Title : 粤语

  53. Language : Chinese

  54. Service kind : Complete Main

  55. Default : Yes

  56. Forced : No

  57. Audio #2

  58. ID : 2

  59. Format : AC-3

  60. Format/Info : Audio Coding 3

  61. Commercial name : Dolby Digital

  62. Codec ID : A_AC3

  63. Duration : 1 h 39 min

  64. Bit rate mode : Constant

  65. Bit rate : 192 kb/s

  66. Channel(s) : 2 channels

  67. Channel layout : L R

  68. Sampling rate : 48.0 kHz

  69. Frame rate : 31.250 FPS (1536 SPF)

  70. Compression mode : Lossy

  71. Stream size : 137 MiB (2%)

  72. Title : 国语

  73. Language : Chinese

  74. Service kind : Complete Main

  75. Default : No

  76. Forced : No

  77. Text #1

  78. ID : 4

  79. Format : PGS

  80. Muxing mode : zlib

  81. Codec ID : S_HDMV/PGS

  82. Codec ID/Info : Picture based subtitle format used on BDs/HD-DVDs

  83. Title : 日语

  84. Language : Japanese

  85. Default : No

  86. Forced : No

  87. Text #2

  88. ID : 5

  89. Format : PGS

  90. Muxing mode : zlib

  91. Codec ID : S_HDMV/PGS

  92. Codec ID/Info : Picture based subtitle format used on BDs/HD-DVDs

  93. Title : 繁体

  94. Language : Chinese

  95. Default : Yes

  96. Forced : No

  97. Text #3

  98. ID : 6

  99. Format : PGS

  100. Muxing mode : zlib

  101. Codec ID : S_HDMV/PGS

  102. Codec ID/Info : Picture based subtitle format used on BDs/HD-DVDs

  103. Title : 简体

  104. Language : Chinese

  105. Default : No

  106. Forced : No

  107. Text #4

  108. ID : 7

  109. Format : PGS

  110. Muxing mode : zlib

  111. Codec ID : S_HDMV/PGS

  112. Codec ID/Info : Picture based subtitle format used on BDs/HD-DVDs

  113. Title : 英语

  114. Language : English

  115. Default : No

  116. Forced : No

  117. Menu

  118. 00:00:00.000 : en:Chapter 01

  119. 00:08:11.875 : en:Chapter 02

  120. 00:20:01.583 : en:Chapter 03

  121. 00:31:01.083 : en:Chapter 04

  122. 00:45:08.375 : en:Chapter 05

  123. 00:55:43.958 : en:Chapter 06

  124. 01:08:33.291 : en:Chapter 07

  125. 01:20:47.291 : en:Chapter 08


复制代码


TAGS 动作 剧情 犯罪 喜剧 /

磁力链:
  • magnet:?xt=urn:btih:B793874AB488AFFCB578838B6D42A2C4764AE483
上传的附件:
BT9527电影天堂 1、BT9527电影天堂提供的BT文件均来源于互联网抓取,只供网友学习交流、技术提升使用。
2、我们遵守BitTorrent点对点协议原则,任何版权问题请联系原资源发布商,我们不处理任何版权纠纷,谢谢!如有争议请联系邮箱:BT9527#hotmail.com(#换成@)
3、如果您发现某页面或地址有错误,请联系站长邮箱BT9527#hotmail.com(#换成@),我们会尽快处理。您的热心是对BT9527电影天堂最大的支持。
4、本站建议去正规影院观看电影以支持电影行业发展。
最新回复 (0)

你可以在 登录 or 注册 后,对此帖发表评论!

返回
发新帖