攻壳机动队[国英多音轨/简繁英特效字幕].Ghost.in.the.Shell.2017.BluRay.1080p.x265.10bit.2Audio-MiniHD 4.23GB

版主小s 6月前 404

◎译 名 攻壳机动队 / 攻壳机动队真人版

◎片 名 Ghost in the Shell

◎年 代 2017

◎产 地 美国 / 印度 / 中国香港 / 中国大陆 / 加拿大

◎类 别 动作 / 科幻 / 犯罪

◎语 言 英语 / 日语

◎上映日期 2017-04-07(中国大陆) / 2017-03-29(法国) / 2017-03-31(美国)

◎IMDb链接 https://www.imdb.com/title/tt1219827/

◎豆瓣评分 6.4/10 (195359人评价)

◎豆瓣链接 https://movie.douban.com/subject/25818101/

◎片 长 107分钟

◎导 演 鲁伯特·桑德斯 Rupert Sanders (id:1320096)

◎编 剧 士郎正宗 Masamune Shirow (id:1037414)

杰米·莫斯 Jamie Moss (id:1364664)

威廉·惠勒 William Wheeler (id:1041993)

伊伦·克鲁格 Ehren Kruger (id:1027468)

◎演 员 斯嘉丽·约翰逊 Scarlett Johansson (id:1054453)

皮鲁·埃斯贝克 Pilou Asb?k (id:1032805)

北野武 Takeshi Kitano (id:1054423)

朱丽叶·比诺什 Juliette Binoche (id:1016677)

迈克尔·皮特 Michael Pitt (id:1000090)

黄经汉 Chin Han (id:1036774)

丹妮西娅·萨马尔 Danusia Samal (id:1371498)

拉札勒斯·雷图勒 Lasarus Ratuere (id:1371499)

泉原豊 Yutaka Izumihara (id:1371500)

托万达·马尼莫 Tawanda Manyimo (id:1371501)

彼得·费迪南多 Peter Ferdinando (id:1332724)

安娜玛丽亚·玛琳卡 Anamaria Marinca (id:1000379)

丹尼尔·亨绍尔 Daniel Henshall (id:1319891)

安德鲁·斯特林 Andrew Stehlin (id:1362761)

桃井薰 Kaori Momoi (id:1002867)

查尔斯·欧比 Chris Obi (id:1365857)

福岛莉拉 Rila Fukushima (id:1326320)

约瑟夫·纳瓦胡 Joseph Naufahu (id:1362872)

迈克尔·维克特 Michael Wincott (id:1055545)

狼森 Philippe Joly (id:1347734)

陈永尉 Wing-Wai Chan (id:1433252)

易宇航 Julian Gaertner (id:1414760)

张子夫 Pete Teo (id:1382369)

温尼·贝内特 Vinnie Bennett (id:1419615)

莫浩峰 Sebastian Mok (id:1459955)

伍玉琪 Andrew Ng (id:1376468)

克林特·曼塞尔 Clint Mansell (id:1014159)

洛内·巴尔菲 Lorne Balfe (id:1032847)

阿库什拉-塔拉·库佩 Acushla-Tara Kupe (id:1400425)

扬·鲁洛尔夫斯 Jan Roelfs (id:1295893)

马可·伍斯特 Marco Wuest (id:1409520)

劳伦·麦卡勒姆 Lauren McCallum (id:1416840)

洛伊·齐默曼 Loic Zimmermann (id:1404957)

菲利普沃尔夫 Philipp Wolf (id:1404956)

约翰·霍华德 John Howard (id:1409517)

易宇航 Julian Gaertner (id:1414760)

押井守 Mamoru Oshii (id:1022959)

◎简 介

近未来,人类的各种器官均可实现移植,一时间机器人、生化人、仿生人充斥世间,与人类真假莫辨。某座繁华都市的大厦内,汉卡公司高管正与非洲来宾洽谈业务,突然宴会变成血腥大屠杀,暴走的机器人大开杀戒。隶属公安九课的米拉·基里安少佐(斯嘉丽·约翰逊 Scarlett Johansson 饰)带领巴特(皮鲁·埃斯贝克 Pilou Asb?k 饰)等手下赶往现场,平息事态。根据对暴走艺伎机器人的调查发现,被称作“久世”的神秘之人策划了这一系列的行动,而且他的目标全部指向了掌握着生化前沿尖端科技的汉卡公司及其研发人员。经过一番凶险的周旋,少佐逐渐逼近真相,同时也渐渐解开了发生在自己身上的惊天秘密……

本片根据士郎正宗的经典原作改编。

◎获奖情况 (共2项)

第4届豆瓣电影年度榜单 (2017)

4月最受关注电影(提名)

第3届豆瓣电影年度榜单 (2016)

最值得期待的外语电影(提名)

  1. ##### MediaInfo ######

  2. General

  3. Unique ID : 202269373738714773388362538272333916922 (0x982BAA144193603482A6AE2F52A26AFA)

  4. Complete name : Ghost.in.the.Shell.2017.BluRay.1080p.x265.10bit.2Audio-MiniHD.mkv

  5. Format : Matroska

  6. Format version : Version 4

  7. File size : 4.23 GiB

  8. Duration : 1 h 46 min

  9. Overall bit rate : 5 659 kb/s

  10. Encoded date : UTC 2017-10-18 03:43:50

  11. Writing application : mkvmerge v15.0.0 ('Duel with the Devil') 64-bit

  12. Writing library : libebml v1.3.5 + libmatroska v1.4.5

  13. Video

  14. ID : 1

  15. Format : HEVC

  16. Format/Info : High Efficiency Video Coding

  17. Codec ID : V_MPEGH/ISO/HEVC

  18. Duration : 1 h 46 min

  19. Bit rate : 4 226 kb/s

  20. Width : 1 920 pixels

  21. Height : 1 080 pixels

  22. Display aspect ratio : 16:9

  23. Frame rate mode : Constant

  24. Frame rate : 23.976 (24000/1001/53354) FPS

  25. Bits/(Pixel*Frame) : 0.085

  26. Stream size : 3.16 GiB (75%)

  27. Default : Yes

  28. Forced : No

  29. Audio #1

  30. ID : 2

  31. Format : AC-3

  32. Format/Info : Audio Coding 3

  33. Commercial name : Dolby Digital

  34. Codec ID : A_AC3

  35. Duration : 1 h 46 min

  36. Bit rate mode : Constant

  37. Bit rate : 640 kb/s

  38. Channel(s) : 6 channels

  39. Channel layout : L R C LFE Ls Rs

  40. Sampling rate : 48.0 kHz

  41. Frame rate : 31.250 FPS (1536 SPF)

  42. Compression mode : Lossy

  43. Stream size : 490 MiB (11%)

  44. Title : 英语原声

  45. Language : English

  46. Service kind : Complete Main

  47. Default : Yes

  48. Forced : No

  49. Audio #2

  50. ID : 3

  51. Format : AC-3

  52. Format/Info : Audio Coding 3

  53. Commercial name : Dolby Digital

  54. Codec ID : A_AC3

  55. Duration : 1 h 46 min

  56. Bit rate mode : Constant

  57. Bit rate : 640 kb/s

  58. Channel(s) : 6 channels

  59. Channel layout : L R C LFE Ls Rs

  60. Sampling rate : 48.0 kHz

  61. Frame rate : 31.250 FPS (1536 SPF)

  62. Compression mode : Lossy

  63. Stream size : 490 MiB (11%)

  64. Title : 正版长译国配

  65. Language : Chinese

  66. Service kind : Complete Main

  67. Default : No

  68. Forced : No

  69. Text #1

  70. ID : 4

  71. Format : PGS

  72. Muxing mode : zlib

  73. Codec ID : S_HDMV/PGS

  74. Codec ID/Info : Picture based subtitle format used on BDs/HD-DVDs

  75. Duration : 1 h 34 min

  76. Bit rate : 21.7 kb/s

  77. Count of elements : 1770

  78. Stream size : 14.7 MiB (0%)

  79. Title : 英文

  80. Language : English

  81. Default : Yes

  82. Forced : No

  83. Text #2

  84. ID : 5

  85. Format : PGS

  86. Muxing mode : zlib

  87. Codec ID : S_HDMV/PGS

  88. Codec ID/Info : Picture based subtitle format used on BDs/HD-DVDs

  89. Duration : 1 h 46 min

  90. Bit rate : 41.4 kb/s

  91. Count of elements : 4419

  92. Stream size : 31.6 MiB (1%)

  93. Title : 囯配简中特效

  94. Language : Chinese

  95. Default : No

  96. Forced : No

  97. Text #3

  98. ID : 6

  99. Format : PGS

  100. Muxing mode : zlib

  101. Codec ID : S_HDMV/PGS

  102. Codec ID/Info : Picture based subtitle format used on BDs/HD-DVDs

  103. Duration : 1 h 46 min

  104. Bit rate : 42.1 kb/s

  105. Count of elements : 4420

  106. Stream size : 32.1 MiB (1%)

  107. Title : 国配繁中特效

  108. Language : Chinese

  109. Default : No

  110. Forced : No

  111. Text #4

  112. ID : 7

  113. Format : PGS

  114. Muxing mode : zlib

  115. Codec ID : S_HDMV/PGS

  116. Codec ID/Info : Picture based subtitle format used on BDs/HD-DVDs

  117. Duration : 1 h 46 min

  118. Bit rate : 68.2 kb/s

  119. Count of elements : 4405

  120. Stream size : 52.0 MiB (1%)

  121. Title : 简英双语特效

  122. Language : Chinese

  123. Default : No

  124. Forced : No

  125. Text #5

  126. ID : 8

  127. Format : PGS

  128. Muxing mode : zlib

  129. Codec ID : S_HDMV/PGS

  130. Codec ID/Info : Picture based subtitle format used on BDs/HD-DVDs

  131. Duration : 1 h 46 min

  132. Bit rate : 68.5 kb/s

  133. Count of elements : 4406

  134. Stream size : 52.2 MiB (1%)

  135. Title : 繁英双语特效

  136. Language : Chinese

  137. Default : No

  138. Forced : No

  139. Text #6

  140. ID : 9

  141. Format : PGS

  142. Muxing mode : zlib

  143. Codec ID : S_HDMV/PGS

  144. Codec ID/Info : Picture based subtitle format used on BDs/HD-DVDs

  145. Duration : 1 h 45 min

  146. Bit rate : 18.1 kb/s

  147. Count of elements : 1840

  148. Stream size : 13.7 MiB (0%)

  149. Title : 蓝光原盘简中

  150. Language : Chinese

  151. Default : No

  152. Forced : No

  153. Text #7

  154. ID : 10

  155. Format : PGS

  156. Muxing mode : zlib

  157. Codec ID : S_HDMV/PGS

  158. Codec ID/Info : Picture based subtitle format used on BDs/HD-DVDs

  159. Duration : 1 h 45 min

  160. Bit rate : 18.4 kb/s

  161. Count of elements : 1840

  162. Stream size : 13.9 MiB (0%)

  163. Title : 蓝光原盘繁中TW

  164. Language : Chinese

  165. Default : No

  166. Forced : No

  167. Text #8

  168. ID : 11

  169. Format : PGS

  170. Muxing mode : zlib

  171. Codec ID : S_HDMV/PGS

  172. Codec ID/Info : Picture based subtitle format used on BDs/HD-DVDs

  173. Duration : 1 h 45 min

  174. Bit rate : 15.8 kb/s

  175. Count of elements : 1820

  176. Stream size : 11.9 MiB (0%)

  177. Title : 蓝光原盘繁中HK

  178. Language : Chinese

  179. Default : No

  180. Forced : No

  181. Menu

  182. 00:00:00.000 : en:Chapter 01

  183. 00:08:09.322 : en:Chapter 02

  184. 00:14:39.962 : en:Chapter 03

  185. 00:21:26.493 : en:Chapter 04

  186. 00:28:02.681 : en:Chapter 05

  187. 00:34:13.217 : en:Chapter 06

  188. 00:39:27.615 : en:Chapter 07

  189. 00:43:57.801 : en:Chapter 08

  190. 00:51:49.815 : en:Chapter 09

  191. 00:55:19.065 : en:Chapter 10

  192. 01:01:06.871 : en:Chapter 11

  193. 01:07:49.732 : en:Chapter 12

  194. 01:14:36.972 : en:Chapter 13

  195. 01:20:31.743 : en:Chapter 14

  196. 01:27:46.177 : en:Chapter 15

  197. 01:33:41.407 : en:Chapter 16

  198. 01:38:00.082 : en:Chapter 17


复制代码


TAGS 动作 犯罪 科幻 /

磁力链:
  • magnet:?xt=urn:btih:ADE3F21143BAEBD0D837FCC075C957C9959099F3
上传的附件:
BT9527电影天堂 1、BT9527电影天堂提供的BT文件均来源于互联网抓取,只供网友学习交流、技术提升使用。
2、我们遵守BitTorrent点对点协议原则,任何版权问题请联系原资源发布商,我们不处理任何版权纠纷,谢谢!如有争议请联系邮箱:BT9527#hotmail.com(#换成@)
3、如果您发现某页面或地址有错误,请联系站长邮箱BT9527#hotmail.com(#换成@),我们会尽快处理。您的热心是对BT9527电影天堂最大的支持。
4、本站建议去正规影院观看电影以支持电影行业发展。
最新回复 (0)

你可以在 登录 or 注册 后,对此帖发表评论!

返回