放牛班的春天[国语音轨/中文字幕].The.Chorus.2004.BluRay.1080p.x265.10bit.2Audio-MiniHD 4.21GB

版主小s 6月前 375

◎译 名 放牛班的春天 / 歌声伴我心(港) / 唱诗班男孩 / The Chorus

◎片 名 Les choristes

◎年 代 2004

◎产 地 法国 / 瑞士 / 德国

◎类 别 剧情 / 喜剧 / 音乐

◎语 言 法语

◎上映日期 2004-10-16(中国大陆) / 2004-03-17(法国)

◎IMDb链接 https://www.imdb.com/title/tt0372824/

◎豆瓣评分 9.3/10 (1195127人评价)

◎豆瓣链接 https://movie.douban.com/subject/1291549/

◎片 长 97分钟

◎导 演 克里斯托夫·巴拉蒂 Christophe Barratier (id:1277959)

◎编 剧 乔治·沙普罗 Georges Chaperot (id:1280488)

勒·惠勒 René Wheeler (id:1006748)

诺埃-诺尔 No?l-No?l (id:1132096)

克里斯托夫·巴拉蒂 Christophe Barratier (id:1277959)

菲利普·洛佩斯-屈瓦尔 Philippe Lopes-Curval (id:1290313)

◎演 员 让-巴蒂斯特·莫尼耶 Jean-Baptiste Maunier (id:1036712)

热拉尔·朱尼奥 Gérard Jugnot (id:1048281)

弗朗索瓦·贝莱昂 Fran?ois Berléand (id:1054351)

凯德·麦拉德 Kad Merad (id:1000491)

让-保罗·博奈雷 Jean-Paul Bonnaire (id:1332377)

雅克·贝汉 Jacques Perrin (id:1010752)

玛丽·布奈尔 Marie Bunel (id:1019268)

马克桑斯·贝汉 Maxence Perrin (id:1319250)

格雷戈里·加迪诺尔 Grégory Gatignol (id:1340685)

托马斯·布伦门塔尔 Thomas Blumenthal (id:1339548)

西里尔·伯尔尼科特 Cyril Bernicot (id:1361810)

西蒙·法戈特 Simon Fargeot (id:1361811)

泰奥杜尔·卡雷-卡赛尼 Théodule Carré-Cassaigne (id:1212721)

菲利普·杜·詹纳兰德 Philippe du Janerand (id:1361812)

埃里克·德斯玛莱茨 Erick Desmarestz (id:1361814)

狄迪尔·弗拉蒙 Didier Flamand (id:1025131)

卡罗尔·韦斯 Carole Weiss (id:1361813)

尼古拉·毛弗奈 Nicolas Mauvernay (id:1305003)

Ruth Waldburger Ruth Waldburger (id:1300288)

贝尔纳·罗兰 Bernard Lorain (id:1469600)

布鲁诺·库莱斯 Bruno Coulais (id:1016799)

Carlo Varini Carlo Varini (id:1276210)

Dominique Gentil Dominique Gentil (id:1284709)

Fran?ois Chauvaud Fran?ois Chauvaud (id:1280549)

◎简 介

1949年的法国乡村,音乐家克莱门特(热拉尔·朱尼奥 饰)到了一间外号叫“塘低”的男子寄宿学校当助理教师。学校里的学生大部分都是难缠的问题儿童,体罚在这里司空见惯,学校的校长(弗朗索瓦·贝莱昂 饰)只顾自己的前途,残暴高压。

性格沉静的克莱门特尝试用自己的方法改善这种状况,他重新创作音乐作品,组织合唱团,决定用音乐的方法来打开学生们封闭的心灵。

然而,事情并不顺利,克莱门特发现学生皮埃尔·莫安琦(让-巴蒂斯特·莫尼耶 饰)拥有非同一般的音乐天赋,但是单亲家庭长大的他,性格异常敏感孤僻,怎样释放皮埃尔的音乐才能,让克莱门特头痛不已;同时,他与皮埃尔母亲的感情也渐渐微妙起来。

◎获奖情况 (共6项)

第77届奥斯卡金像奖 (2005)

最佳外语片(提名)

└──克里斯托夫·巴拉蒂 (id:1277959)

最佳原创歌曲(提名)

第62届金球奖 (2005)

电影类 最佳外语片(提名)

第58届英国电影学院奖 (2005)

电影奖 最佳改编剧本(提名)

电影奖 最佳非英语片(提名)

电影奖 最佳原创音乐(提名)

└──布鲁诺·库莱斯 (id:1016799)

  1. ##### MediaInfo ######

  2. General

  3. Unique ID : 254401452579703117831692232729352823228 (0xBF63F002BEBAD8FBAF0B130BE2B561BC)

  4. Complete name : The.Chorus.2004.BluRay.1080p.x265.10bit.2Audio-MiniHD.mkv

  5. Format : Matroska

  6. Format version : Version 4

  7. File size : 4.21 GiB

  8. Duration : 1 h 36 min

  9. Overall bit rate : 6 226 kb/s

  10. Encoded date : UTC 2017-03-24 11:59:55

  11. Writing application : mkvmerge v9.7.1 ('Pandemonium') 64bit

  12. Writing library : libebml v1.3.4 + libmatroska v1.4.5

  13. Video

  14. ID : 1

  15. Format : HEVC

  16. Format/Info : High Efficiency Video Coding

  17. Format profile : Main 10@L4@Main

  18. Codec ID : V_MPEGH/ISO/HEVC

  19. Duration : 1 h 36 min

  20. Bit rate : 5 139 kb/s

  21. Width : 1 920 pixels

  22. Height : 816 pixels

  23. Display aspect ratio : 2.35:1

  24. Frame rate mode : Constant

  25. Frame rate : 24.000 FPS

  26. Color space : YUV

  27. Chroma subsampling : 4:2:0

  28. Bit depth : 10 bits

  29. Bits/(Pixel*Frame) : 0.137

  30. Stream size : 3.47 GiB (83%)

  31. Writing library : x265 2.3+7-c15f8bce9f4b:[Windows][GCC 6.3.0][64 bit] 10bit

  32. Encoding settings : cpuid=533541173503 / frame-threads=6 / numa-pools=36 / wpp / no-pmode / no-pme / no-psnr / no-ssim / log-level=2 / input-csp=1 / input-res=1920x816 / interlace=0 / total-frames=139253 / level-idc=0 / high-tier=1 / uhd-bd=0 / ref=5 / no-allow-non-conformance / no-repeat-headers / annexb / no-aud / no-hrd / info / hash=0 / no-temporal-layers / no-open-gop / min-keyint=1 / keyint=360 / bframes=8 / b-adapt=2 / b-pyramid / bframe-bias=0 / rc-lookahead=60 / lookahead-slices=4 / NTMzNTQ=uuDQuD2mJt9fsCf / scenecut=40 / no-intra-refresh / ctu=32 / min-cu-size=8 / rect / no-amp / max-tu-size=16 / tu-inter-depth=2 / tu-intra-depth=2 / limit-tu=0 / rdoq-level=2 / dynamic-rd=0.00 / signhide / no-tskip / nr-intra=0 / nr-inter=0 / no-constrained-intra / no-strong-intra-smoothing / max-merge=3 / limit-refs=2 / limit-modes / me=3 / subme=5 / merange=25 / temporal-mvp / weightp / weightb / no-analyze-src-pics / deblock=-1:-1 / no-sao / no-sao-non-deblock / rd=4 / no-early-skip / rskip / no-fast-intra / no-tskip-fast / no-cu-lossless / b-intra / rdpenalty=1 / psy-rd=0.00 / psy-rdoq=5.00 / no-rd-refine / analysis-mode=0 / no-lossless / cbqpoffs=-2 / crqpoffs=-2 / rc=crf / crf=19.0 / qcomp=0.65 / qpstep=4 / stats-write=0 / stats-read=0 / ipratio=1.40 / pbratio=1.30 / aq-mode=3 / aq-strength=0.80 / cutree / zone-count=0 / no-strict-cbr / qg-size=16 / no-rc-grain / qpmax=69 / qpmin=0 / sar=0 / overscan=0 / videoformat=5 / range=0 / colorprim=1 / transfer=2 / colormatrix=2 / chromaloc=0 / display-window=0 / max-cll=0,0 / min-luma=0 / max-luma=1023 / log2-max-poc-lsb=8 / vui-timing-info / vui-hrd-info / slices=1 / opt-qp-pps / opt-ref-list-length-pps / no-multi-pass-opt-rps / scenecut-bias=0.05 / no-opt-cu-delta-qp / no-aq-motion / no-hdr / no-hdr-opt / Capture-colorprim=3

  33. Default : Yes

  34. Forced : No

  35. Color range : Limited

  36. Color primaries : BT.709

  37. Audio #1

  38. ID : 2

  39. Format : AC-3

  40. Format/Info : Audio Coding 3

  41. Commercial name : Dolby Digital

  42. Codec ID : A_AC3

  43. Duration : 1 h 36 min

  44. Bit rate mode : Constant

  45. Bit rate : 640 kb/s

  46. Channel(s) : 6 channels

  47. Channel layout : L R C LFE Ls Rs

  48. Sampling rate : 48.0 kHz

  49. Frame rate : 31.250 FPS (1536 SPF)

  50. Compression mode : Lossy

  51. Stream size : 443 MiB (10%)

  52. Language : French

  53. Service kind : Complete Main

  54. Default : Yes

  55. Forced : No

  56. Audio #2

  57. ID : 3

  58. Format : AC-3

  59. Format/Info : Audio Coding 3

  60. Commercial name : Dolby Digital

  61. Codec ID : A_AC3

  62. Duration : 1 h 36 min

  63. Bit rate mode : Constant

  64. Bit rate : 384 kb/s

  65. Channel(s) : 6 channels

  66. Channel layout : L R C LFE Ls Rs

  67. Sampling rate : 48.0 kHz

  68. Frame rate : 31.250 FPS (1536 SPF)

  69. Compression mode : Lossy

  70. Delay relative to video : 29 s 100 ms

  71. Stream size : 264 MiB (6%)

  72. Language : Chinese

  73. Service kind : Complete Main

  74. Default : No

  75. Forced : No

  76. Text #1

  77. ID : 4

  78. Format : PGS

  79. Muxing mode : zlib

  80. Codec ID : S_HDMV/PGS

  81. Codec ID/Info : Picture based subtitle format used on BDs/HD-DVDs

  82. Duration : 1 h 32 min

  83. Bit rate : 16.1 kb/s

  84. Count of elements : 2741

  85. Stream size : 10.6 MiB (0%)

  86. Language : Chinese

  87. Default : Yes

  88. Forced : No

  89. Text #2

  90. ID : 5

  91. Format : PGS

  92. Muxing mode : zlib

  93. Codec ID : S_HDMV/PGS

  94. Codec ID/Info : Picture based subtitle format used on BDs/HD-DVDs

  95. Duration : 1 h 32 min

  96. Bit rate : 16.5 kb/s

  97. Count of elements : 2741

  98. Stream size : 10.9 MiB (0%)

  99. Language : Chinese

  100. Default : No

  101. Forced : No

  102. Text #3

  103. ID : 6

  104. Format : PGS

  105. Muxing mode : zlib

  106. Codec ID : S_HDMV/PGS

  107. Codec ID/Info : Picture based subtitle format used on BDs/HD-DVDs

  108. Duration : 1 h 32 min

  109. Bit rate : 16.1 kb/s

  110. Count of elements : 2741

  111. Stream size : 10.6 MiB (0%)

  112. Language : Chinese

  113. Default : No

  114. Forced : No

  115. Text #4

  116. ID : 7

  117. Format : PGS

  118. Muxing mode : zlib

  119. Codec ID : S_HDMV/PGS

  120. Codec ID/Info : Picture based subtitle format used on BDs/HD-DVDs

  121. Duration : 1 h 32 min

  122. Bit rate : 16.5 kb/s

  123. Count of elements : 2741

  124. Stream size : 10.9 MiB (0%)

  125. Language : Chinese

  126. Default : No

  127. Forced : No

  128. Menu

  129. 00:00:00.000 : en:Chapter 01

  130. 00:03:19.375 : en:Chapter 02

  131. 00:04:35.958 : en:Chapter 03

  132. 00:07:33.416 : en:Chapter 04

  133. 00:12:12.291 : en:Chapter 05

  134. 00:17:42.375 : en:Chapter 06

  135. 00:21:16.166 : en:Chapter 07

  136. 00:25:42.750 : en:Chapter 08

  137. 00:29:34.833 : en:Chapter 09

  138. 00:32:00.958 : en:Chapter 10

  139. 00:36:09.375 : en:Chapter 11

  140. 00:38:18.625 : en:Chapter 12

  141. 00:43:29.500 : en:Chapter 13

  142. 00:47:30.000 : en:Chapter 14

  143. 00:51:22.375 : en:Chapter 15

  144. 00:54:38.375 : en:Chapter 16

  145. 01:00:52.375 : en:Chapter 17

  146. 01:05:59.833 : en:Chapter 18

  147. 01:11:10.208 : en:Chapter 19

  148. 01:15:08.333 : en:Chapter 20

  149. 01:20:21.541 : en:Chapter 21

  150. 01:23:44.291 : en:Chapter 22

  151. 01:27:35.000 : en:Chapter 23

  152. 01:32:12.250 : en:Chapter 24


复制代码


TAGS 剧情 喜剧 音乐 /

磁力链:
  • magnet:?xt=urn:btih:C31915FF760954C919B5A065F085E2B15AF1CDE8
上传的附件:
BT9527电影天堂 1、BT9527电影天堂提供的BT文件均来源于互联网抓取,只供网友学习交流、技术提升使用。
2、我们遵守BitTorrent点对点协议原则,任何版权问题请联系原资源发布商,我们不处理任何版权纠纷,谢谢!如有争议请联系邮箱:BT9527#hotmail.com(#换成@)
3、如果您发现某页面或地址有错误,请联系站长邮箱BT9527#hotmail.com(#换成@),我们会尽快处理。您的热心是对BT9527电影天堂最大的支持。
4、本站建议去正规影院观看电影以支持电影行业发展。
最新回复 (0)

你可以在 登录 or 注册 后,对此帖发表评论!

返回
发新帖