比得兔[国英多音轨/简繁英字幕].Peter.Rabbit.2018.BluRay.2160p.x265.10bit.HDR.3Audio-MiniHD 17.91GB

版主小s 6月前 383

◎译 名 比得兔 / 彼得兔

◎片 名 Peter Rabbit

◎年 代 2018

◎产 地 美国 / 英国 / 澳大利亚

◎类 别 喜剧 / 动画 / 冒险

◎语 言 英语

◎上映日期 2018-03-02(中国大陆) / 2018-02-09(美国)

◎IMDb链接 https://www.imdb.com/title/tt5117670/

◎豆瓣评分 7.1/10 (97716人评价)

◎豆瓣链接 https://movie.douban.com/subject/26649604/

◎片 长 95分钟

◎导 演 威尔·古勒 Will Gluck (id:1274281)

◎编 剧 威尔·古勒 Will Gluck (id:1274281)

罗伯·列博 Rob Lieber (id:1006208)

碧翠丝·波特 Beatrix Potter (id:1023822)

◎演 员 詹姆斯·柯登 James Corden (id:1017966)

多姆纳尔·格里森 Domhnall Gleeson (id:1313116)

罗丝·伯恩 Rose Byrne (id:1022562)

伊丽莎白·德比茨基 Elizabeth Debicki (id:1322172)

玛格特·罗比 Margot Robbie (id:1272303)

黛西·雷德利 Daisy Ridley (id:1339916)

科林·穆迪 Colin Moody (id:1276123)

山姆·尼尔 Sam Neill (id:1049525)

希雅 SIA (id:1240500)

伊文·莱斯利 Ewen Leslie (id:1204255)

费萨尔·巴齐 Fayssal Bazzi (id:1389561)

克里斯蒂安·加扎尔 Christian Gazal (id:1389562)

玛丽安娜·琼-巴普蒂斯特 Marianne Jean-Baptiste (id:1055527)

加雷斯·戴维斯 Gareth Davies (id:1389568)

山姆·哈夫特 Sam Haft (id:1389564)

萨莎·霍勒 Sacha Horler (id:1094444)

娜塔丽·朱 Natalie Dew (id:1348683)

特伦尼娅·爱德华兹 Terenia Edwards (id:1389563)

费利克斯·威廉森 Felix Williamson (id:1389565)

许明珠 Ming-Zhu Hii (id:1389566)

布莱恩·布朗 Bryan Brown (id:1013730)

蕾切尔·沃德 Rachel Ward (id:1049746)

大卫·文翰 David Wenham (id:1049573)

威尔·赖歇尔特 Will Reichelt (id:1389567)

伯纳多·桑托斯 Bernardo Santos (id:1390686)

多米尼克·刘易斯 Dominic Lewis (id:1443475)

小彼得·孟席斯 Peter Menzies Jr. (id:1443467)

丽兹·加德纳 Lizzy Gardiner (id:1284553)

威尔·赖歇尔特 Will Reichelt (id:1389567)

◎简 介

远离伦敦的英国乡村,比得兔(詹姆斯·柯登 James Corden 配音)和家人以及朋友们过着快乐的生活,当然除了那个侵占了他自由土地并杀害他父亲的邻居麦格雷戈先生。每天,比得兔都要闯入麦格雷戈的院子偷吃水果蔬菜,顺带和这个顽固凶残的老家伙对决一番。可就在某天,麦格雷戈意外身亡。快乐的兔子们带着郊外的野生动物闯入没有住人的房子大吃八喝,好不自在。然而好景不长,麦格雷戈的侄子托马斯(多姆纳尔·格里森 Domhnall Gleeson 饰)——一个在伦敦闯荡的精英——刚刚丢了工作,偏巧继承了这幢位于乡下的房子。

托马斯来到乡下,毫不留情将野生动物们赶了出去,而比得兔他们一刻也不忘要夺回属于自己的土地……

◎获奖情况 (共2项)

第66届美国音效剪辑协会奖 (2019)

金卷轴奖 最佳动画片音效剪辑(提名)

第5届豆瓣电影年度榜单 (2018)

评分最高的动画片(提名)

  1. ##### MediaInfo ######

  2. General

  3. Unique ID : 63960564938611327998517610179508835215 (0x301E5B527EA63925F4AAD0AB82F8138F)

  4. Complete name : Peter.Rabbit.2018.BluRay.2160p.x265.10bit.HDR.3Audio-MiniHD.mkv

  5. Format : Matroska

  6. Format version : Version 4

  7. File size : 17.9 GiB

  8. Duration : 1 h 34 min

  9. Overall bit rate mode : Variable

  10. Overall bit rate : 27.1 Mb/s

  11. Encoded date : UTC 2018-05-07 04:58:36

  12. Writing application : mkvmerge v20.0.0 ('I Am The Sun') 32-bit

  13. Writing library : libebml v1.3.5 + libmatroska v1.4.8

  14. Video

  15. ID : 1

  16. Format : HEVC

  17. Format/Info : High Efficiency Video Coding

  18. Format profile : Main 10@L5.1@High

  19. HDR format : SMPTE ST 2086, HDR10 compatible

  20. Codec ID : V_MPEGH/ISO/HEVC

  21. Duration : 1 h 34 min

  22. Bit rate : 19.5 Mb/s

  23. Width : 3 840 pixels

  24. Height : 1 606 pixels

  25. Display aspect ratio : 2.40:1

  26. Frame rate mode : Constant

  27. Frame rate : 23.976 (24000/1001/53354) FPS

  28. Color space : YUV

  29. Chroma subsampling : 4:2:0 (Type 2)

  30. Bit depth : 10 bits

  31. Bits/(Pixel*Frame) : 0.132

  32. Stream size : 12.9 GiB (72%)

  33. Writing library : x265 2.7+1-2aa737a99f51:[Windows][GCC 7.3.0][64 bit] 10bit

  34. Encoding settings : cpuid=533541173503 / frame-threads=8 / numa-pools=32,32 / wpp / no-pmode / no-pme / no-psnr / no-ssim / log-level=2 / input-csp=1 / input-res=3840x1606 / interlace=0 / total-frames=0 / level-idc=51 / high-tier=1 / uhd-bd=0 / ref=5 / no-allow-non-conformance / repeat-headers / annexb / aud / hrd / info / hash=0 / no-temporal-layers / no-open-gop / min-keyint=1 / keyint=360 / gop-lookahead=0 / bframes=8 / b-adapt=2 / b-pyramid / bframe-bias=0 / rc-lookahead=48 / lookahead-slices=4 / NTMzNTQ=uuDQuD2mJt9fsCf / scenecut=40 / radl=0 / no-intra-refresh / ctu=32 / min-cu-size=8 / no-rect / no-amp / max-tu-size=32 / tu-inter-depth=2 / tu-intra-depth=2 / limit-tu=4 / rdoq-level=1 / dynamic-rd=0.00 / no-ssim-rd / signhide / no-tskip / nr-intra=0 / nr-inter=0 / no-constrained-intra / no-strong-intra-smoothing / max-merge=3 / limit-refs=2 / limit-modes / me=3 / subme=5 / merange=25 / temporal-mvp / weightp / weightb / no-analyze-src-pics / deblock=-1:-1 / no-sao / no-sao-non-deblock / rd=4 / no-early-skip / no-rskip / no-fast-intra / no-tskip-fast / no-cu-lossless / b-intra / no-splitrd-skip / rdpenalty=1 / psy-rd=2.00 / psy-rdoq=5.00 / no-rd-refine / no-lossless / cbqpoffs=-2 / crqpoffs=-2 / rc=crf / crf=17.0 / qcomp=0.70 / qpstep=4 / stats-write=0 / stats-read=0 / vbv-maxrate=120000 / vbv-bufsize=120000 / vbv-init=0.9 / crf-max=0.0 / crf-min=0.0 / ipratio=1.40 / pbratio=1.30 / aq-mode=3 / aq-strength=0.90 / cutree / zone-count=0 / no-strict-cbr / qg-size=32 / no-rc-grain / qpmax=69 / qpmin=0 / no-const-vbv / sar=1 / overscan=0 / videoformat=5 / range=0 / colorprim=9 / transfer=16 / colormatrix=9 / chromaloc=1 / chromaloc-top=2 / chromaloc-bottom=2 / display-window=0 / master-display=G(13250,34500)B(7500,3000)R(34000,16000)WP(15635,16450)L(40000000,50) / max-cll=3991,240 / min-luma=0 / max-luma=1023 / log2-max-poc-lsb=8 / vui-timing-info / vui-hrd-info / slices=1 / no-opt-qp-pps / no-opt-ref-list-length-pps / no-multi-pass-opt-rps / scenecut-bias=0.05 / no-opt-cu-delta-qp / no-aq-motion / hdr / hdr-opt / no-dhdr10-opt / analysis-reuse-level=5 / scale-factor=0 / refine-intra=0 / refine-inter=0 / refine-mv=0 / no-limit-sao / ctu-info=0 / no-lowpass-dct / refine-mv-type=0 / copy-pic=1

  35. Default : Yes

  36. Forced : No

  37. Color range : Limited

  38. Color primaries : BT.2020

  39. Transfer characteristics : PQ

  40. Matrix coefficients : BT.2020 non-constant

  41. Mastering display color primaries : Display P3

  42. Mastering display luminance : min: 0.0050 cd/m2, max: 4000 cd/m2

  43. Maximum Content Light Level : 3991 cd/m2

  44. Maximum Frame-Average Light Level : 240 cd/m2

  45. Audio #1

  46. ID : 2

  47. Format : MLP FBA 16-ch

  48. Format/Info : Meridian Lossless Packing FBA with 16-channel presentation

  49. Commercial name : Dolby TrueHD with Dolby Atmos

  50. Codec ID : A_TRUEHD

  51. Duration : 1 h 34 min

  52. Bit rate mode : Variable

  53. Bit rate : 4 603 kb/s

  54. Maximum bit rate : 8 133 kb/s

  55. Channel(s) : 8 channels

  56. Channel layout : L R C LFE Ls Rs Lb Rb

  57. Sampling rate : 48.0 kHz

  58. Frame rate : 1 200.000 FPS (40 SPF)

  59. Compression mode : Lossless

  60. Delay relative to video : 7 ms

  61. Stream size : 3.05 GiB (17%)

  62. Title : 英语全景声

  63. Language : English

  64. Default : Yes

  65. Forced : No

  66. Number of dynamic objects : 11

  67. Bed channel count : 1 channel

  68. Bed channel configuration : LFE

  69. Audio #2

  70. ID : 3

  71. Format : AC-3

  72. Format/Info : Audio Coding 3

  73. Commercial name : Dolby Digital

  74. Codec ID : A_AC3

  75. Duration : 1 h 34 min

  76. Bit rate mode : Constant

  77. Bit rate : 640 kb/s

  78. Channel(s) : 6 channels

  79. Channel layout : L R C LFE Ls Rs

  80. Sampling rate : 48.0 kHz

  81. Frame rate : 31.250 FPS (1536 SPF)

  82. Compression mode : Lossy

  83. Delay relative to video : 8 ms

  84. Stream size : 434 MiB (2%)

  85. Title : 英语

  86. Language : English

  87. Service kind : Complete Main

  88. Default : No

  89. Forced : No

  90. Audio #3

  91. ID : 4

  92. Format : DTS XLL

  93. Format/Info : Digital Theater Systems

  94. Commercial name : DTS-HD Master Audio

  95. Codec ID : A_DTS

  96. Duration : 1 h 34 min

  97. Bit rate mode : Variable

  98. Bit rate : 2 198 kb/s

  99. Channel(s) : 6 channels

  100. Channel layout : C L R Ls Rs LFE

  101. Sampling rate : 48.0 kHz

  102. Frame rate : 93.750 FPS (512 SPF)

  103. Bit depth : 16 bits

  104. Compression mode : Lossless

  105. Stream size : 1.45 GiB (8%)

  106. Title : 国语DTSHD

  107. Language : Chinese

  108. Default : No

  109. Forced : No

  110. Text #1

  111. ID : 5

  112. Format : PGS

  113. Muxing mode : zlib

  114. Codec ID : S_HDMV/PGS

  115. Codec ID/Info : Picture based subtitle format used on BDs/HD-DVDs

  116. Duration : 1 h 33 min

  117. Bit rate : 62.7 kb/s

  118. Count of elements : 3901

  119. Stream size : 42.1 MiB (0%)

  120. Title : 英文

  121. Language : English

  122. Default : Yes

  123. Forced : No

  124. Text #2

  125. ID : 6

  126. Format : PGS

  127. Muxing mode : zlib

  128. Codec ID : S_HDMV/PGS

  129. Codec ID/Info : Picture based subtitle format used on BDs/HD-DVDs

  130. Duration : 1 h 25 min

  131. Bit rate : 51.7 kb/s

  132. Count of elements : 3194

  133. Stream size : 31.6 MiB (0%)

  134. Title : 国配简体

  135. Language : Chinese

  136. Default : No

  137. Forced : No

  138. Text #3

  139. ID : 7

  140. Format : PGS

  141. Muxing mode : zlib

  142. Codec ID : S_HDMV/PGS

  143. Codec ID/Info : Picture based subtitle format used on BDs/HD-DVDs

  144. Duration : 1 h 25 min

  145. Bit rate : 52.2 kb/s

  146. Count of elements : 3194

  147. Stream size : 31.8 MiB (0%)

  148. Title : 国配繁体

  149. Language : Chinese

  150. Default : No

  151. Forced : No


复制代码


TAGS 冒险 动画 喜剧 /

磁力链:
  • magnet:?xt=urn:btih:E14123CF0ED2107603651E4823B3F8296CC2136E
上传的附件:
BT9527电影天堂 1、BT9527电影天堂提供的BT文件均来源于互联网抓取,只供网友学习交流、技术提升使用。
2、我们遵守BitTorrent点对点协议原则,任何版权问题请联系原资源发布商,我们不处理任何版权纠纷,谢谢!如有争议请联系邮箱:BT9527#hotmail.com(#换成@)
3、如果您发现某页面或地址有错误,请联系站长邮箱BT9527#hotmail.com(#换成@),我们会尽快处理。您的热心是对BT9527电影天堂最大的支持。
4、本站建议去正规影院观看电影以支持电影行业发展。
最新回复 (0)

你可以在 登录 or 注册 后,对此帖发表评论!

返回
发新帖