孤星泪[国英多音轨/中英字幕].Les.Miserables.1998.BluRay.1080p.x265.10bit.2Audio-MiniHD 4.61GB

版主小s 6月前 319

◎译 名 孤星泪 / 新悲惨世界 / 悲惨世界

◎片 名 Les misérables

◎年 代 1998

◎产 地 英国 / 德国 / 美国

◎类 别 剧情 / 爱情 / 历史 / 犯罪

◎语 言 英语

◎上映日期 1998-05-01

◎IMDb链接 https://www.imdb.com/title/tt0119683/

◎豆瓣评分 7.6/10 (5338人评价)

◎豆瓣链接 https://movie.douban.com/subject/1297138/

◎片 长 134 分钟

◎导 演 比利·奥古斯特 Bille August (id:1041311)

◎编 剧 拉斐尔·依格雷西亚斯 Rafael Yglesias (id:1301473)

维克多·雨果 Victor Hugo (id:1032739)

◎演 员 连姆·尼森 Liam Neeson (id:1031220)

杰弗里·拉什 Geoffrey Rush (id:1010543)

乌玛·瑟曼 Uma Thurman (id:1031221)

克莱尔·丹妮丝 Claire Danes (id:1053582)

连尼·詹姆斯 Lennie James (id:1027381)

乔·肯尼 Jon Kenny (id:1346331)

艾德娜·多雷 Edna Doré (id:1282632)

托比·琼斯 Toby Jones (id:1107884)

皮特·沃恩 Peter Vaughan (id:1156985)

米罗斯拉夫·塔博尔斯基 Miroslav Táborsky (id:1149454)

爱德华·都铎-波尔 Edward Tudor-Pole (id:1148780)

凯思琳·拜荣 Kathleen Byron (id:1014300)

汉斯·麦瑟逊 Hans Matheson (id:1022695)

亚力克斯·诺顿 Alex Norton (id:1007169)

蒂莫西·贝特森 Timothy Bateson (id:1062689)

帕齐·伯恩 Patsy Byrne (id:1069841)

瑞内·拜诺索恩 Reine Brynolfsson (id:1075076)

Zdenek David Zdenek David (id:1081950)

西尔维·考伯利兹克娃 Sylvie Koblizkova (id:1114604)

John McGlynn John McGlynn (id:1116412)

玛格里·梅森 Margery Mason (id:1125641)

Milan Riehs Milan Riehs (id:1140224)

James Saxon James Saxon (id:1142051)

朱利安·林希德-图特 Julian Rhind-Tutt (id:1147816)

Sarah Radclyffe Sarah Radclyffe (id:1042100)

詹姆斯·戈尔曼 James Gorman (id:1034287)

卡罗琳·休伊特 Caroline Hewitt (id:1286567)

巴索·普列多斯 Basil Poledouris (id:1025404)

约根·佩尔松 J?rgen Persson (id:1052235)

雅努斯·比利斯科夫·扬森 Janus Billeskov Jansen (id:1038865)

利奥·戴维斯 Leo Davis (id:1281921)

Peter Grant Peter Grant (id:1285307)

安娜·阿斯普 Anna Asp (id:1046314)

加布里埃尔·佩斯卡西 Gabriella Pescucci (id:1294357)

Toni-Ann Walker Toni-Ann Walker (id:1300313)

简·阿齐巴德 Jan Archibald (id:1277362)

Betty Glasow Betty Glasow (id:1284950)

莫拉格·罗斯 Morag Ross (id:1296145)

Eva Vytlelová Eva Vytlelová (id:1300211)

Guy Mazarguil Guy Mazarguil (id:1291381)

Arthur Wooster Arthur Wooster (id:1048786)

Alex Hope Alex Hope (id:1286891)

Paul Riddle Paul Riddle (id:1295646)

理查德·贝恩 Richard Bain (id:1008396)

查理·诺伯 Charlie Noble (id:1293216)

◎简 介

冉阿让(连姆·尼森 Liam Neeson 饰)因为偷窃面包而面临着二十年的牢狱之灾,被警长沙威(杰弗里·拉什 Geoffrey Rush 饰)释放后,囚犯的身份让他处处碰壁。走投无路的冉阿让被善良的主教(皮特·沃恩 Peter Vaughan 饰)收留。冉阿让偷了主教的银器企图潜逃,在被逮捕后主教却谎称银器是自己送给冉阿让的礼物。主教的这一举动彻底感化了冉阿让,他决定洗心革面,好好生活。

一晃十年过去,冉阿让隐姓埋名成为了小镇的镇长并结识了命运悲惨的女工芳汀(乌玛·瑟曼 Uma Thurman 饰)。冉阿让向命不久矣的芳汀承诺,自己会照顾她年幼的女儿珂赛特(克莱尔·丹妮斯 Claire Danes 饰),与此同时,一直都在追踪冉阿让踪迹的沙威亦察觉了镇长的真实身份。

  1. ##### MediaInfo ######

  2. General

  3. Unique ID : 177169038990215436143491372325988201787 (0x85498407996DA5EEAA1B236B7F57F53B)

  4. Complete name : Les.Miserables.1998.BluRay.1080p.x265.10bit.2Audio-MiniHD.mkv

  5. Format : Matroska

  6. Format version : Version 4

  7. File size : 4.61 GiB

  8. Duration : 2 h 13 min

  9. Overall bit rate : 4 924 kb/s

  10. Encoded date : UTC 2017-09-26 10:06:51

  11. Writing application : mkvmerge v11.0.0 ('Alive') 64bit

  12. Writing library : libebml v1.3.4 + libmatroska v1.4.5

  13. Video

  14. ID : 1

  15. Format : HEVC

  16. Format/Info : High Efficiency Video Coding

  17. Codec ID : V_MPEGH/ISO/HEVC

  18. Duration : 2 h 13 min

  19. Bit rate : 4 020 kb/s

  20. Width : 1 920 pixels

  21. Height : 800 pixels

  22. Display aspect ratio : 2.40:1

  23. Frame rate mode : Constant

  24. Frame rate : 23.976 (24000/1001/53354) FPS

  25. Bits/(Pixel*Frame) : 0.109

  26. Stream size : 3.76 GiB (82%)

  27. Default : Yes

  28. Forced : No

  29. Audio #1

  30. ID : 2

  31. Format : AC-3

  32. Format/Info : Audio Coding 3

  33. Commercial name : Dolby Digital

  34. Codec ID : A_AC3

  35. Duration : 2 h 13 min

  36. Bit rate mode : Constant

  37. Bit rate : 640 kb/s

  38. Channel(s) : 6 channels

  39. Channel layout : L R C LFE Ls Rs

  40. Sampling rate : 48.0 kHz

  41. Frame rate : 31.250 FPS (1536 SPF)

  42. Compression mode : Lossy

  43. Stream size : 613 MiB (13%)

  44. Language : English

  45. Service kind : Complete Main

  46. Default : Yes

  47. Forced : No

  48. Audio #2

  49. ID : 3

  50. Format : AC-3

  51. Format/Info : Audio Coding 3

  52. Commercial name : Dolby Digital

  53. Codec ID : A_AC3

  54. Duration : 2 h 13 min

  55. Bit rate mode : Constant

  56. Bit rate : 192 kb/s

  57. Channel(s) : 2 channels

  58. Channel layout : L R

  59. Sampling rate : 48.0 kHz

  60. Frame rate : 31.250 FPS (1536 SPF)

  61. Compression mode : Lossy

  62. Delay relative to video : 24 ms

  63. Stream size : 184 MiB (4%)

  64. Language : Chinese

  65. Service kind : Complete Main

  66. Default : No

  67. Forced : No

  68. Text #1

  69. ID : 4

  70. Format : PGS

  71. Muxing mode : zlib

  72. Codec ID : S_HDMV/PGS

  73. Codec ID/Info : Picture based subtitle format used on BDs/HD-DVDs

  74. Duration : 2 h 8 min

  75. Bit rate : 9 221 b/s

  76. Count of elements : 3108

  77. Stream size : 8.49 MiB (0%)

  78. Language : English

  79. Default : Yes

  80. Forced : No

  81. Text #2

  82. ID : 5

  83. Format : PGS

  84. Muxing mode : zlib

  85. Codec ID : S_HDMV/PGS

  86. Codec ID/Info : Picture based subtitle format used on BDs/HD-DVDs

  87. Duration : 2 h 4 min

  88. Bit rate : 16.2 kb/s

  89. Count of elements : 2850

  90. Stream size : 14.4 MiB (0%)

  91. Language : Chinese

  92. Default : No

  93. Forced : No

  94. Text #3

  95. ID : 6

  96. Format : PGS

  97. Muxing mode : zlib

  98. Codec ID : S_HDMV/PGS

  99. Codec ID/Info : Picture based subtitle format used on BDs/HD-DVDs

  100. Duration : 2 h 4 min

  101. Bit rate : 16.8 kb/s

  102. Count of elements : 2850

  103. Stream size : 15.0 MiB (0%)

  104. Language : Chinese

  105. Default : No

  106. Forced : No

  107. Text #4

  108. ID : 7

  109. Format : PGS

  110. Muxing mode : zlib

  111. Codec ID : S_HDMV/PGS

  112. Codec ID/Info : Picture based subtitle format used on BDs/HD-DVDs

  113. Duration : 2 h 4 min

  114. Bit rate : 16.2 kb/s

  115. Count of elements : 2850

  116. Stream size : 14.4 MiB (0%)

  117. Language : Chinese

  118. Default : No

  119. Forced : No

  120. Text #5

  121. ID : 8

  122. Format : PGS

  123. Muxing mode : zlib

  124. Codec ID : S_HDMV/PGS

  125. Codec ID/Info : Picture based subtitle format used on BDs/HD-DVDs

  126. Duration : 2 h 4 min

  127. Bit rate : 16.8 kb/s

  128. Count of elements : 2850

  129. Stream size : 15.0 MiB (0%)

  130. Language : Chinese

  131. Default : No

  132. Forced : No

  133. Menu

  134. 00:00:00.000 : en:00:00:00.000

  135. 00:06:20.922 : en:00:06:20.922

  136. 00:16:18.519 : en:00:16:18.519

  137. 00:26:56.865 : en:00:26:56.865

  138. 00:35:40.513 : en:00:35:40.513

  139. 00:47:21.047 : en:00:47:21.047

  140. 00:55:15.062 : en:00:55:15.062

  141. 01:01:47.120 : en:01:01:47.120

  142. 01:13:37.955 : en:01:13:37.955

  143. 01:16:37.551 : en:01:16:37.551

  144. 01:24:04.790 : en:01:24:04.790

  145. 01:36:09.639 : en:01:36:09.639

  146. 01:40:08.419 : en:01:40:08.419

  147. 01:50:08.894 : en:01:50:08.894

  148. 01:55:17.160 : en:01:55:17.160

  149. 02:04:56.072 : en:02:04:56.072


复制代码


TAGS 剧情 犯罪 爱情 历史 /

磁力链:
  • magnet:?xt=urn:btih:A601FAA621931A5D6A3FDF1F104D5DDA07E53DB1
上传的附件:
BT9527电影天堂 1、BT9527电影天堂提供的BT文件均来源于互联网抓取,只供网友学习交流、技术提升使用。
2、我们遵守BitTorrent点对点协议原则,任何版权问题请联系原资源发布商,我们不处理任何版权纠纷,谢谢!如有争议请联系邮箱:BT9527#hotmail.com(#换成@)
3、如果您发现某页面或地址有错误,请联系站长邮箱BT9527#hotmail.com(#换成@),我们会尽快处理。您的热心是对BT9527电影天堂最大的支持。
4、本站建议去正规影院观看电影以支持电影行业发展。
最新回复 (0)

你可以在 登录 or 注册 后,对此帖发表评论!

返回
发新帖