姐妹[简繁英字幕].Sisters.2015.1080p.BluRay.DTS.x265-10bit-ENTHD 7.69GB

版主小s 6月前 756



◎译  名 姐妹 / 瞎趴姊妹 (台) / 安乐窝 / 鸟巢 / The Nest
◎片  名 Sisters
◎年  代 2015
◎产  地 美国
◎类  别 喜剧
◎语  言 英语
◎上映日期 2015-12-18(美国)
◎IMDb链接 https://www.imdb.com/title/tt1850457/
◎豆瓣评分 5.8/10 (4301人评价)
◎豆瓣链接 https://movie.douban.com/subject/25862279/
◎片  长 118分钟
◎导  演 杰森·摩尔 Jason Moore (id:1131666)
◎编  剧 保拉·佩尔 Paula Pell (id:1345702)
◎演  员 蒂娜·菲 Tina Fey (id:1044730)
       艾米·波勒 Amy Poehler (id:1049515)
       玛娅·鲁道夫 Maya Rudolph (id:1025183)
       伊克·巴里霍尔兹 Ike Barinholtz (id:1004936)
       詹姆斯·布洛林 James Brolin (id:1010577)
       黛安·韦斯特 Dianne Wiest (id:1002725)
       约翰·塞纳 John Cena (id:1044883)
       约翰·雷吉扎莫 John Leguizamo (id:1010561)
       鲍比·莫尼汉 Bobby Moynihan (id:1204579)
       凯特·麦克金农 Kate McKinnon (id:1319532)
       瑞秋·德拉彻 Rachel Dratch (id:1032014)
       格里塔·李 Greta Lee (id:1338526)
       麦蒂森·达文波特 Madison Davenport (id:1040674)
       圣蒂诺·方塔纳 Santino Fontana (id:1336310)
       希瑟·玛塔拉佐 Heather Matarazzo (id:1040555)
       丹·伯德 Dan Byrd (id:1078139)
       克里斯塔·贝斯·坎贝尔 Christa Beth Campbell (id:1415077)
       马特·奥伯格 Matt Oberg (id:1340620)
       布丽特·洛薇尔 Britt Lower (id:1354386)
       克里斯托弗·贝克 Christophe Beck (id:1278180)
       迪娜·哈希姆 Dina Hashem (id:1465544)

◎简  介
  SNL著名搭档,曾获得三项金球奖八个艾美奖的蒂娜·菲(Tina Fey)与金球喜剧视后艾米·波勒(Amy Poehler)联合主演。SNL著名喜剧演员玛雅·鲁道夫(Maya Rudolph)也担任重要角色。                                    
                                影片讲述因为父母卖掉了老房子,两姐妹被召回清理自己儿时的卧室,过程中她们也拾回了许多自己童年遗失的美好回忆,中途发生了许多搞笑尴尬的故事。

◎获奖情况 (共2项)
  第21届美国评论家选择电影奖 (2016)
  最佳喜剧片(提名)
  喜剧片最佳女主角(提名)
   └──蒂娜·菲 (id:1044730)

  1. ##### MediaInfo ######
  2. General
  3. Unique ID                                : 140495320503509096214204409036415525075 (0x69B26A1B632E9A4FF28CEF5BE30560D3)
  4. Complete name                            : Sisters.2015.1080p.BluRay.DTS.x265-10bit-ENTHD.mkv
  5. Format                                   : Matroska
  6. Format version                           : Version 4
  7. File size                                : 7.69 GiB
  8. Duration                                 : 1 h 57 min
  9. Overall bit rate                         : 9 349 kb/s
  10. Movie name                               : Sisters 2015 1080p BluRay DTS x265-10bit-HDS
  11. Encoded date                             : UTC 2022-06-02 12:05:43
  12. Writing application                      : mkvmerge v67.0.0 ('Under Stars') 64-bit
  13. Writing library                          : libebml v1.4.2 + libmatroska v1.6.4
  14. Video
  15. ID                                       : 1
  16. Format                                   : HEVC
  17. Format/Info                              : High Efficiency Video Coding
  18. Format profile                           : Main 10@L5.1@High
  19. Codec ID                                 : V_MPEGH/ISO/HEVC
  20. Duration                                 : 1 h 57 min
  21. Bit rate                                 : 7 781 kb/s
  22. Width                                    : 1 920 pixels
  23. Height                                   : 804 pixels
  24. Display aspect ratio                     : 2.40:1
  25. Frame rate mode                          : Constant
  26. Frame rate                               : 23.976 (24000/1001/53354) FPS
  27. Color space                              : YUV
  28. Chroma subsampling                       : 4:2:0
  29. Bit depth                                : 10 bits
  30. Bits/(Pixel*Frame)                       : 0.210
  31. Stream size                              : 6.40 GiB (83%)
  32. Title                                    : cofunlau@HDSky
  33. Writing library                          : x265 - H.265/HEVC codec
  34. Default                                  : Yes
  35. Forced                                   : No
  36. Audio
  37. ID                                       : 2
  38. Format                                   : DTS
  39. Format/Info                              : Digital Theater Systems
  40. Codec ID                                 : A_DTS
  41. Duration                                 : 1 h 57 min
  42. Bit rate mode                            : Constant
  43. Bit rate                                 : 1 509 kb/s
  44. Channel(s)                               : 6 channels
  45. Channel layout                           : C L R Ls Rs LFE
  46. Sampling rate                            : 48.0 kHz
  47. Frame rate                               : 93.750 FPS (512 SPF)
  48. Bit depth                                : 24 bits
  49. Compression mode                         : Lossy
  50. Stream size                              : 1.24 GiB (16%)
  51. Title                                    : English
  52. Language                                 : English
  53. Default                                  : Yes
  54. Forced                                   : No
  55. Text #1
  56. ID                                       : 3
  57. Format                                   : PGS
  58. Muxing mode                              : zlib
  59. Codec ID                                 : S_HDMV/PGS
  60. Codec ID/Info                            : Picture based subtitle format used on BDs/HD-DVDs
  61. Duration                                 : 1 h 52 min
  62. Bit rate                                 : 65.8 kb/s
  63. Count of elements                        : 4976
  64. Stream size                              : 52.8 MiB (1%)
  65. Title                                    : ENG
  66. Language                                 : English
  67. Default                                  : Yes
  68. Forced                                   : No
  69. Text #2
  70. ID                                       : 4
  71. Format                                   : PGS
  72. Muxing mode                              : zlib
  73. Codec ID                                 : S_HDMV/PGS
  74. Codec ID/Info                            : Picture based subtitle format used on BDs/HD-DVDs
  75. Duration                                 : 1 h 56 min
  76. Bit rate                                 : 40.5 kb/s
  77. Count of elements                        : 4468
  78. Stream size                              : 33.9 MiB (0%)
  79. Title                                    : CHS
  80. Language                                 : Chinese
  81. Default                                  : Yes
  82. Forced                                   : No
  83. Text #3
  84. ID                                       : 5
  85. Format                                   : PGS
  86. Muxing mode                              : zlib
  87. Codec ID                                 : S_HDMV/PGS
  88. Codec ID/Info                            : Picture based subtitle format used on BDs/HD-DVDs
  89. Duration                                 : 1 h 56 min
  90. Bit rate                                 : 41.6 kb/s
  91. Count of elements                        : 4472
  92. Stream size                              : 34.8 MiB (0%)
  93. Title                                    : CHT
  94. Language                                 : Chinese
  95. Default                                  : Yes
  96. Forced                                   : No
  97. Menu
  98. 00:00:00.000                             : en:第 01 章
  99. 00:07:48.176                             : en:第 02 章
  100. 00:13:55.543                             : en:第 03 章
  101. 00:17:50.861                             : en:第 04 章
  102. 00:23:15.019                             : en:第 05 章
  103. 00:28:56.526                             : en:第 06 章
  104. 00:33:05.108                             : en:第 07 章
  105. 00:38:01.446                             : en:第 08 章
  106. 00:43:41.869                             : en:第 09 章
  107. 00:47:39.065                             : en:第 10 章
  108. 00:53:23.492                             : en:第 11 章
  109. 00:59:15.927                             : en:第 12 章
  110. 01:06:01.749                             : en:第 13 章
  111. 01:13:13.973                             : en:第 14 章
  112. 01:19:03.030                             : en:第 15 章
  113. 01:26:25.305                             : en:第 16 章
  114. 01:32:26.332                             : en:第 17 章
  115. 01:40:15.468                             : en:第 18 章
  116. 01:46:12.241                             : en:第 19 章
  117. 01:50:56.775                             : en:第 20 章
复制代码




TAGS 喜剧

磁力链:
  • magnet:?xt=urn:btih:37634320E057F5FA37EE185BAFAEF22CE4032582
上传的附件:
BT9527电影天堂 1、BT9527电影天堂提供的BT文件均来源于互联网抓取,只供网友学习交流、技术提升使用。
2、我们遵守BitTorrent点对点协议原则,任何版权问题请联系原资源发布商,我们不处理任何版权纠纷,谢谢!如有争议请联系邮箱:BT9527#hotmail.com(#换成@)
3、如果您发现某页面或地址有错误,请联系站长邮箱BT9527#hotmail.com(#换成@),我们会尽快处理。您的热心是对BT9527电影天堂最大的支持。
4、本站建议去正规影院观看电影以支持电影行业发展。
最新回复 (0)

你可以在 登录 or 注册 后,对此帖发表评论!

返回
发新帖