山村狐妻[杜比视界版本][国语配音/中文字幕].The.Wicked.Wife.2022.2160p.WEB-DL.DV.H265.AAC-CTRLWEB 5.98GB

版主小s 6月前 588



◎译  名 山村狐妻
◎年  代 2022
◎产  地 中国大陆
◎语  言 汉语普通话
◎上映日期 2022-06-02(中国大陆)
◎IMDb链接 https://www.imdb.com/title//
◎豆瓣链接 https://movie.douban.com/subject/35914264/

  1. ##### MediaInfo ######
  2. General
  3. Complete name                            : The.Wicked.Wife.2022.2160p.WEB-DL.DV.H265.AAC-CTRLWEB.mp4
  4. Format                                   : MPEG-4
  5. Format profile                           : Base Media
  6. Codec ID                                 : isom (isom/iso2/mp41)
  7. File size                                : 5.98 GiB
  8. Duration                                 : 1 h 32 min
  9. Overall bit rate mode                    : Variable
  10. Overall bit rate                         : 9 221 kb/s
  11. Writing application                      : Lavf59.0.100
  12. Video
  13. ID                                       : 1
  14. Format                                   : HEVC
  15. Format/Info                              : High Efficiency Video Coding
  16. Format profile                           : Main 10@L5@Main
  17. HDR format                               : Dolby Vision, Version 1.0, dvhe.05.06, BL+RPU
  18. Codec ID                                 : hev1
  19. Codec ID/Info                            : High Efficiency Video Coding
  20. Duration                                 : 1 h 32 min
  21. Bit rate                                 : 8 959 kb/s
  22. Width                                    : 3 840 pixels
  23. Height                                   : 1 632 pixels
  24. Display aspect ratio                     : 2.35:1
  25. Frame rate mode                          : Variable
  26. Frame rate                               : 25.000 FPS
  27. Minimum frame rate                       : 24.993 FPS
  28. Maximum frame rate                       : 25.007 FPS
  29. Color space                              : YUV
  30. Chroma subsampling                       : 4:2:0
  31. Bit depth                                : 10 bits
  32. Bits/(Pixel*Frame)                       : 0.057
  33. Stream size                              : 5.81 GiB (97%)
  34. Color range                              : Full
  35. mdhd_Duration                            : 5567680
  36. Codec configuration box                  : hvcC+dvcC
  37. Audio
  38. ID                                       : 2
  39. Format                                   : AAC LC
  40. Format/Info                              : Advanced Audio Codec Low Complexity
  41. Codec ID                                 : mp4a-40-2
  42. Duration                                 : 1 h 32 min
  43. Bit rate mode                            : Variable
  44. Bit rate                                 : 253 kb/s
  45. Maximum bit rate                         : 256 kb/s / 256 kb/s
  46. Channel(s)                               : 2 channels
  47. Channel layout                           : L R
  48. Sampling rate                            : 48.0 kHz
  49. Frame rate                               : 46.875 FPS (1024 SPF)
  50. Compression mode                         : Lossy
  51. Stream size                              : 168 MiB (3%)
  52. Default                                  : Yes
  53. Alternate group                          : 1
复制代码




TAGS 剧情

磁力链:
  • magnet:?xt=urn:btih:9DC2F33F16C239A5685254AD725C5A082015BB5B
上传的附件:
BT9527电影天堂 1、BT9527电影天堂提供的BT文件均来源于互联网抓取,只供网友学习交流、技术提升使用。
2、我们遵守BitTorrent点对点协议原则,任何版权问题请联系原资源发布商,我们不处理任何版权纠纷,谢谢!如有争议请联系邮箱:BT9527#hotmail.com(#换成@)
3、如果您发现某页面或地址有错误,请联系站长邮箱BT9527#hotmail.com(#换成@),我们会尽快处理。您的热心是对BT9527电影天堂最大的支持。
4、本站建议去正规影院观看电影以支持电影行业发展。
最新回复 (0)

你可以在 登录 or 注册 后,对此帖发表评论!

返回
发新帖