青禾男高[国语音轨].Fist.and.Faith.2017.CHINESE.ENSUBBED.1080p.AMZN.WEBRip.DDP2.0.x264-ECLiPSE 4.92GB

版主小s 5月前 299




◎译  名 青禾男高 / 热血高校之青禾男高 / Fist & Faith
◎年  代 2017
◎产  地 中国大陆 / 中国台湾
◎类  别 剧情
◎语  言 汉语普通话 / 日语
◎上映日期 2017-07-12(中国大陆)
◎IMDb链接 https://www.imdb.com/title/tt7619402/
◎豆瓣评分 3.9/10 (22712人评价)
◎豆瓣链接 https://movie.douban.com/subject/26787124/
◎片  长 98分钟
◎导  演 蒋卓原 Zhuoyuan Jiang (id:1340958)
◎编  剧 蒋卓原 Zhuoyuan Jiang (id:1340958)
◎演  员 景甜 Tian Jing (id:1275432)
       欧豪 Oho Ou (id:1337644)
       黑木美沙 Meisa Kuroki (id:1018617)
       林遣都 Kento Hayashi (id:1038106)
       张宁江 Ningjiang Zhang (id:1321998)
       尹昉 Fang Yin (id:1340310)
       周游 You Zhou (id:1353521)
       丁冠森 Guansen Ding (id:1355327)
       夏恩 En Xia (id:1376888)
       姜宗远 Zongyuan Jiang (id:1376889)
       中岛广稀 Hiroki Nakajima (id:1376890)
       刘德凯 De-kai Liu (id:1275485)
       荫山征彦 Yukihiko Kageyama (id:1312802)
       木幡龙 Ryu Kohata (id:1313726)
       大谷主水 Otani Mondo (id:1385778)
       李方丁 Fangding Li (id:1452197)
       钮承泽 Doze Niu Chen-Zer (id:1274411)

◎简  介
  在一所名为青禾男高的学校里,荆浩(欧豪 饰)和阿屁、谭嘉木、幺鸡、二饼四位少年在特别的校园环境中结成了生死与共的挚友兄弟,并成为这所男高里唯一对抗校园霸凌的团体,压制了柴田(林遣都 饰)等人横行霸道的校园恶行。在特殊的时代氛围里,两方势力保持着微妙的平衡,直到女教师柳禾(景甜 饰)的出现,平衡被打破,这所男高里的少年们将何去何从,就此展开的激战如箭在弦。

  1. Video
  2. ID                                       : 1
  3. Format                                   : AVC
  4. Format/Info                              : Advanced Video Codec
  5. Format profile                           : High@L4
  6. Format settings                          : CABAC / 4 Ref Frames
  7. Format settings, CABAC                   : Yes
  8. Format settings, Reference frames        : 4 frames
  9. Codec ID                                 : V_MPEG4/ISO/AVC
  10. Duration                                 : 1 h 39 min
  11. Bit rate mode                            : Constant
  12. Bit rate                                 : 6 851 kb/s
  13. Nominal bit rate                         : 10 000 kb/s
  14. Width                                    : 1 920 pixels
  15. Height                                   : 1 080 pixels
  16. Display aspect ratio                     : 16:9
  17. Frame rate mode                          : Constant
  18. Frame rate                               : 23.976 (24000/1001/53354) FPS
  19. Color space                              : YUV
  20. Chroma subsampling                       : 4:2:0
  21. Bit depth                                : 8 bits
  22. Scan type                                : Progressive
  23. Bits/(Pixel*Frame)                       : 0.138
  24. Stream size                              : 4.76 GiB (97%)
  25. Default                                  : Yes
  26. Forced                                   : No
  27. Color range                              : Limited
  28. Color primaries                          : BT.709
  29. Transfer characteristics                 : BT.709
  30. Matrix coefficients                      : BT.709

  31. Audio
  32. ID                                       : 2
  33. Format                                   : E-AC-3
  34. Format/Info                              : Enhanced AC-3
  35. Commercial name                          : Dolby Digital Plus
  36. Codec ID                                 : A_EAC3
  37. Duration                                 : 1 h 39 min
  38. Bit rate mode                            : Constant
  39. Bit rate                                 : 224 kb/s
  40. Channel(s)                               : 2 channels
  41. Channel layout                           : L R
  42. Sampling rate                            : 48.0 kHz
  43. Frame rate                               : 31.250 FPS (1536 SPF)
  44. Compression mode                         : Lossy
  45. Stream size                              : 159 MiB (3%)
  46. Title                                    : Traditional
  47. Language                                 : Chinese
  48. Service kind                             : Complete Main
  49. Default                                  : Yes
  50. Forced                                   : No

  51. Text
  52. ID                                       : 3
  53. Format                                   : UTF-8
  54. Codec ID                                 : S_TEXT/UTF8
  55. Codec ID/Info                            : UTF-8 Plain Text
  56. Duration                                 : 1 h 32 min
  57. Bit rate                                 : 1 b/s
  58. Count of elements                        : 74
  59. Stream size                              : 962 Bytes (0%)
  60. Title                                    : SDH
  61. Language                                 : English
  62. Default                                  : No
  63. Forced                                   : No
复制代码




TAGS 剧情

磁力链:
  • magnet:?xt=urn:btih:37792B03D951D8B7C002348FF3091F1C2435DAD6
上传的附件:
BT9527电影天堂 1、BT9527电影天堂提供的BT文件均来源于互联网抓取,只供网友学习交流、技术提升使用。
2、我们遵守BitTorrent点对点协议原则,任何版权问题请联系原资源发布商,我们不处理任何版权纠纷,谢谢!如有争议请联系邮箱:BT9527#hotmail.com(#换成@)
3、如果您发现某页面或地址有错误,请联系站长邮箱BT9527#hotmail.com(#换成@),我们会尽快处理。您的热心是对BT9527电影天堂最大的支持。
4、本站建议去正规影院观看电影以支持电影行业发展。
最新回复 (0)

你可以在 登录 or 注册 后,对此帖发表评论!

返回
发新帖