林肯[国英多音轨/中英字幕].Lincoln.2012.BluRay.1080p.x265.10bit.2Audio-MiniHD 6.58GB

版主小s 5月前 285



◎译  名 林肯 / 林肯传
◎片  名 Lincoln
◎年  代 2012
◎产  地 美国 / 印度
◎类  别 剧情 / 传记 / 历史
◎语  言 英语
◎上映日期 2012-11-16(美国)
◎IMDb链接 https://www.imdb.com/title/tt0443272/
◎豆瓣评分 7.8/10 (49194人评价)
◎豆瓣链接 https://movie.douban.com/subject/1889242/
◎片  长 150分钟
◎导  演 史蒂文·斯皮尔伯格 Steven Spielberg (id:1054440)
◎编  剧 托尼·库什纳 Tony Kushner (id:1009788)
       多丽丝·肯斯·古德温 Doris Kearns Goodwin (id:1015139)
◎演  员 丹尼尔·戴-刘易斯 Daniel Day-Lewis (id:1056177)
       莎莉·菲尔德 Sally Field (id:1041112)
       大卫·斯特雷泽恩 David Strathairn (id:1007009)
       约瑟夫·高登-莱维特 Joseph Gordon-Levitt (id:1101703)
       詹姆斯·斯派德 James Spader (id:1006968)
       哈尔·霍尔布鲁克 Hal Holbrook (id:1006996)
       汤米·李·琼斯 Tommy Lee Jones (id:1047994)
       约翰·浩克斯 John Hawkes (id:1100849)
       杰基·厄尔·哈利 Jackie Earle Haley (id:1009239)
       布鲁斯·麦克吉尔 Bruce McGill (id:1010626)
       蒂姆·布雷克·尼尔森 Tim Blake Nelson (id:1048166)
       约瑟夫·克罗斯 Joseph Cross (id:1018029)
       杰瑞德·哈里斯 Jared Harris (id:1049700)
       李·佩斯 Lee Pace (id:1018975)
       皮特·麦克罗比 Peter McRobbie (id:1117237)
       格列佛·麦格拉思 Gulliver McGrath (id:1323237)
       格洛利亚·鲁本 Gloria Reuben (id:1017982)
       杰瑞米·斯特朗 Jeremy Strong (id:1342766)
       迈克尔·斯图巴 Michael Stuhlbarg (id:1009409)
       波利斯·麦戈法 Boris McGiver (id:1121249)
       大卫·科斯塔贝尔 David Costabile (id:1316077)
       斯蒂芬·斯皮内拉 Stephen Spinella (id:1150781)
       沃尔顿·戈金斯 Walton Goggins (id:1098551)
       大卫·沃肖夫斯基 David Warshofsky (id:1032209)
       科尔曼·多明戈 Colman Domingo (id:1088744)
       大卫·奥伊罗 David Oyelowo (id:1000231)
       卢卡斯·哈斯 Lukas Haas (id:1002713)
       戴恩·德哈恩 Dane DeHaan (id:1317646)
       比尔·坎普 Bill Camp (id:1349856)
       伊丽莎白·玛维尔 Elizabeth Marvel (id:1118995)
       拜伦·詹宁斯 Byron Jennings (id:1349103)
       朱丽叶·怀特 Julie White (id:1018059)
       葛人杰·海恩斯 Grainger Hines (id:1332876)
       理查德·托普尔 Richard Topol (id:1363629)
       Walt Smith Walt Smith (id:1363630)
       戴金·马修斯 Dakin Matthews (id:1120240)
       James 'Ike' Eichling James 'Ike' Eichling (id:1363631)
       韦恩·杜瓦尔 Wayne Duvall (id:1019154)
       比尔·雷蒙德 Bill Raymond (id:1363632)
       Michael Stanton Kennedy Michael Stanton Kennedy (id:1111659)
       Mike Shiflett Mike Shiflett (id:1363633)
       格里高利·伊齐恩 Gregory Itzin (id:1000205)
       斯蒂芬·亨德森 Stephen Henderson (id:1098483)
       约翰·哈顿 John Hutton (id:1363634)
       亚当·德赖弗 Adam Driver (id:1322327)
       Asa-Luke Twocrow Asa-Luke Twocrow (id:1363635)
       克里斯托弗·埃文·韦尔奇 Christopher Evan Welch (id:1339885)
       Ted Johnson Ted Johnson (id:1363636)
       雷纳·希茨 Raynor Scheine (id:1170521)
       埃帕莎·默克森 S. Epatha Merkerson (id:1036616)
       克里斯托弗·波耶尔 Christopher Boyer (id:1073071)
       凯瑟琳·肯尼迪 Kathleen Kennedy (id:1019168)
       史蒂文·斯皮尔伯格 Steven Spielberg (id:1054440)
       约翰·威廉姆斯 John Williams (id:1054692)
       雅努什·卡明斯基 Janusz Kaminski (id:1009475)
       瑞克·卡特 Rick Carter (id:1280172)
       乔安娜·约翰斯顿 Joanna Johnston (id:1287829)

◎简  介
  1865年,持续四年的美国内战进入了尾声,亚伯拉罕·林肯总统(丹尼尔·戴-刘易斯 Daniel Day-Lewis 饰)也迎来了他的第二个任期。在生命和任期的最后四个月,林肯一直在致力于一场比内战还艰苦的战役:推动宪法第13修正案在国会的通过。该法案将从法理上永久废除奴隶制在美国的存在。然而修正案提出的时机异常糟糕:废奴思想缺少人民的响应;国会为保守势力把持;支持废奴的激进派也不满林肯的作风。当分裂出去的南部州表达了重回谈判桌和终结内战的意愿后,林肯发现他面临一个两难的痛苦决定:是获得妥协的和平,还是坚守内心的道德?是结束奴隶制,还是结束战争?                                       
                                    “假如奴隶制不是错误,那就没有对的了。”根据历史著作《对手的团队:林肯的政治智慧》改编,由普利策奖得主托尼·库什纳执笔,奥斯卡导演史蒂文·斯皮尔伯格执导,两届影帝丹尼尔·戴-刘易斯主演的传记大片《林肯》引领观...

◎获奖情况 (共97项)
  第85届奥斯卡金像奖 (2013)
  最佳影片(提名)
  最佳导演(提名)
   └──史蒂文·斯皮尔伯格 (id:1054440)
  最佳男主角
   └──丹尼尔·戴-刘易斯 (id:1056177)
  最佳男配角(提名)
   └──汤米·李·琼斯 (id:1047994)
  最佳女配角(提名)
   └──莎莉·菲尔德 (id:1041112)
  最佳改编剧本(提名)
   └──托尼·库什纳 (id:1009788)
  最佳摄影(提名)
   └──雅努什·卡明斯基 (id:1009475)
  最佳剪辑(提名)
   └──迈克尔·卡恩 (id:1037019)
  最佳混音(提名)
  最佳艺术指导
  最佳服装设计(提名)
   └──乔安娜·约翰斯顿 (id:1287829)
  最佳原创配乐(提名)
   └──约翰·威廉姆斯 (id:1054692)

  第70届金球奖 (2013)
  电影类 最佳剧情片(提名)
  电影类 最佳导演(提名)
   └──史蒂文·斯皮尔伯格 (id:1054440)
  电影类 剧情片最佳男主角
   └──丹尼尔·戴-刘易斯 (id:1056177)
  电影类 最佳男配角(提名)
   └──汤米·李·琼斯 (id:1047994)
  电影类 最佳女配角(提名)
   └──莎莉·菲尔德 (id:1041112)
  电影类 最佳编剧(提名)
   └──托尼·库什纳 (id:1009788)
  电影类 最佳原创配乐(提名)
   └──约翰·威廉姆斯 (id:1054692)

  第57届意大利大卫奖 (2013)
  最佳外语片(提名)
   └──史蒂文·斯皮尔伯格 (id:1054440)

  第22届MTV电影奖 (2013)
  MTV电影奖 最佳男演员(提名)
   └──丹尼尔·戴-刘易斯 (id:1056177)

  第65届美国导演工会奖 (2013)
  最佳电影导演(提名)
   └──史蒂文·斯皮尔伯格 (id:1054440)

  第19届美国演员工会奖 (2013)
  电影奖 最佳男主角
   └──丹尼尔·戴-刘易斯 (id:1056177)
  电影奖 最佳男配角
   └──汤米·李·琼斯 (id:1047994)
  电影奖 最佳女配角(提名)
   └──莎莉·菲尔德 (id:1041112)
  电影奖 最佳群戏(提名)

  第78届纽约影评人协会奖 (2012)
  最佳男主角
   └──丹尼尔·戴-刘易斯 (id:1056177)
  最佳男配角(提名)
   └──汤米·李·琼斯 (id:1047994)
  最佳女配角
   └──莎莉·菲尔德 (id:1041112)
  最佳剧本
   └──托尼·库什纳 (id:1009788)

  第84届美国国家评论协会奖 (2013)
  年度佳片

  第18届美国评论家选择电影奖 (2013)
  最佳影片(提名)
  最佳导演(提名)
   └──史蒂文·斯皮尔伯格 (id:1054440)
  最佳男主角
   └──丹尼尔·戴-刘易斯 (id:1056177)
  最佳男配角(提名)
   └──汤米·李·琼斯 (id:1047994)
  最佳女配角(提名)
   └──莎莉·菲尔德 (id:1041112)
  最佳群戏(提名)
  最佳改编剧本
   └──托尼·库什纳 (id:1009788)
  最佳摄影(提名)
   └──雅努什·卡明斯基 (id:1009475)
  最佳剪辑(提名)
   └──迈克尔·卡恩 (id:1037019)
  最佳配乐
   └──约翰·威廉姆斯 (id:1054692)
  最佳美术指导(提名)
  最佳服装设计(提名)
   └──乔安娜·约翰斯顿 (id:1287829)
  最佳发型化妆(提名)

  第13届美国电影学会奖 (2012)
  年度佳片

  第17届金卫星奖 (2012)
  电影部门 最佳剧情片(提名)
  电影部门 最佳导演(提名)
   └──史蒂文·斯皮尔伯格 (id:1054440)
  电影部门 剧情片最佳男主角(提名)
   └──丹尼尔·戴-刘易斯 (id:1056177)
  电影部门 最佳男配角(提名)
   └──汤米·李·琼斯 (id:1047994)
  电影部门 最佳改编剧本(提名)
   └──托尼·库什纳 (id:1009788)
  电影部门 最佳原创配乐(提名)
   └──约翰·威廉姆斯 (id:1054692)
  电影部门 最佳摄影(提名)
   └──雅努什·卡明斯基 (id:1009475)
  电影部门 最佳美术指导

  第47届美国国家影评人协会奖 (2013)
  最佳男主角
   └──丹尼尔·戴-刘易斯 (id:1056177)
  最佳男配角(提名)
   └──汤米·李·琼斯 (id:1047994)
  最佳女配角(提名)
   └──莎莉·菲尔德 (id:1041112)
  最佳剧本
   └──托尼·库什纳 (id:1009788)

  第11届华盛顿影评人协会奖 (2012)
  最佳影片(提名)
  最佳导演(提名)
   └──史蒂文·斯皮尔伯格 (id:1054440)
  最佳男主角
   └──丹尼尔·戴-刘易斯 (id:1056177)
  最佳男配角(提名)
   └──汤米·李·琼斯 (id:1047994)
  最佳女配角(提名)
   └──莎莉·菲尔德 (id:1041112)
  最佳改编剧本(提名)
   └──托尼·库什纳 (id:1009788)
  最佳群戏(提名)
  最佳配乐(提名)
   └──约翰·威廉姆斯 (id:1054692)
  最佳艺术指导(提名)

  第33届波士顿影评人协会奖 (2012)
  最佳男主角
   └──丹尼尔·戴-刘易斯 (id:1056177)
  最佳女配角
   └──莎莉·菲尔德 (id:1041112)
  最佳剧本
   └──托尼·库什纳 (id:1009788)

  第17届圣地亚哥影评人协会奖 (2012)
  最佳男主角
   └──丹尼尔·戴-刘易斯 (id:1056177)
  最佳改编剧本(提名)
   └──托尼·库什纳 (id:1009788)

  第25届芝加哥影评人协会奖 (2012)
  最佳影片(提名)
  最佳导演(提名)
   └──史蒂文·斯皮尔伯格 (id:1054440)
  最佳男主角
   └──丹尼尔·戴-刘易斯 (id:1056177)
  最佳男配角(提名)
   └──汤米·李·琼斯 (id:1047994)
  最佳女配角(提名)
   └──莎莉·菲尔德 (id:1041112)
  最佳改编剧本
   └──托尼·库什纳 (id:1009788)
  最佳摄影(提名)
   └──雅努什·卡明斯基 (id:1009475)
  最佳艺术指导(提名)

  第11届旧金山影评人协会奖 (2012)
  最佳男配角
   └──汤米·李·琼斯 (id:1047994)
  最佳改编剧本
   └──托尼·库什纳 (id:1009788)

  第46届堪萨斯影评人协会奖 (2012)
  最佳男主角
   └──丹尼尔·戴-刘易斯 (id:1056177)

  第12届凤凰城影评人协会奖 (2012)
  最佳导演(提名)
   └──史蒂文·斯皮尔伯格 (id:1054440)
  最佳男主角
   └──丹尼尔·戴-刘易斯 (id:1056177)
  最佳男配角(提名)
   └──汤米·李·琼斯 (id:1047994)
  最佳女配角(提名)
   └──莎莉·菲尔德 (id:1041112)
  最佳原创配乐(提名)
   └──约翰·威廉姆斯 (id:1054692)
  最佳摄影(提名)
   └──雅努什·卡明斯基 (id:1009475)
  最佳服装设计(提名)
   └──乔安娜·约翰斯顿 (id:1287829)
  十佳影片(提名)

  第21届东南影评人协会奖 (2012)
  最佳男主角
   └──丹尼尔·戴-刘易斯 (id:1056177)
  最佳男配角(提名)
   └──汤米·李·琼斯 (id:1047994)
  最佳女配角(提名)
   └──莎莉·菲尔德 (id:1041112)
  最佳改编剧本(提名)
   └──托尼·库什纳 (id:1009788)
  最佳群像
  十大佳片

  第3届豆瓣电影鑫像奖 (2013)
  鑫豆单元 最佳男演员(外语)
   └──丹尼尔·戴-刘易斯 (id:1056177)

  1. ##### MediaInfo ######
  2. General
  3. Unique ID                                : 250150524193866671195680252099058282144 (0xBC313D0F50379A3CB577F4E5A2A12EA0)
  4. Complete name                            : Lincoln.2012.BluRay.1080p.x265.10bit.2Audio-MiniHD.mkv
  5. Format                                   : Matroska
  6. Format version                           : Version 4
  7. File size                                : 6.58 GiB
  8. Duration                                 : 2 h 30 min
  9. Overall bit rate                         : 6 255 kb/s
  10. Encoded date                             : UTC 2017-04-28 09:26:06
  11. Writing application                      : mkvmerge v9.7.1 ('Pandemonium') 64bit
  12. Writing library                          : libebml v1.3.4 + libmatroska v1.4.5
  13. Video
  14. ID                                       : 1
  15. Format                                   : HEVC
  16. Format/Info                              : High Efficiency Video Coding
  17. Format profile                           : Main 10@L4@Main
  18. Codec ID                                 : V_MPEGH/ISO/HEVC
  19. Duration                                 : 2 h 30 min
  20. Bit rate                                 : 5 328 kb/s
  21. Width                                    : 1 920 pixels
  22. Height                                   : 800 pixels
  23. Display aspect ratio                     : 2.40:1
  24. Frame rate mode                          : Constant
  25. Frame rate                               : 23.976 (24000/1001/53354) FPS
  26. Color space                              : YUV
  27. Chroma subsampling                       : 4:2:0
  28. Bit depth                                : 10 bits
  29. Bits/(Pixel*Frame)                       : 0.145
  30. Stream size                              : 5.61 GiB (85%)
  31. Writing library                          : x265 2.3+32-1ed218717877:[Windows][GCC 6.3.0][64 bit] 10bit
  32. Encoding settings                        : cpuid=533541173503 / frame-threads=6 / numa-pools=36 / wpp / no-pmode / no-pme / no-psnr / no-ssim / log-level=2 / input-csp=1 / input-res=1920x800 / interlace=0 / total-frames=1776 / level-idc=0 / high-tier=1 / uhd-bd=0 / ref=5 / no-allow-non-conformance / no-repeat-headers / annexb / no-aud / no-hrd / info / hash=0 / no-temporal-layers / no-open-gop / min-keyint=1 / keyint=360 / bframes=8 / b-adapt=2 / b-pyramid / bframe-bias=0 / rc-lookahead=60 / lookahead-slices=4 / NTMzNTQ=uuDQuD2mJt9fsCf / scenecut=40 / no-intra-refresh / ctu=32 / min-cu-size=8 / rect / no-amp / max-tu-size=16 / tu-inter-depth=2 / tu-intra-depth=2 / limit-tu=4 / rdoq-level=2 / dynamic-rd=0.00 / ssim-rd / signhide / no-tskip / nr-intra=0 / nr-inter=0 / no-constrained-intra / no-strong-intra-smoothing / max-merge=3 / limit-refs=1 / limit-modes / me=3 / subme=5 / merange=25 / temporal-mvp / weightp / weightb / no-analyze-src-pics / deblock=-1:-1 / no-sao / no-sao-non-deblock / rd=4 / no-early-skip / rskip / no-fast-intra / no-tskip-fast / no-cu-lossless / b-intra / rdpenalty=1 / psy-rd=0.00 / psy-rdoq=5.00 / no-rd-refine / analysis-mode=0 / no-lossless / cbqpoffs=-2 / crqpoffs=-2 / rc=crf / crf=19.0 / qcomp=0.65 / qpstep=4 / stats-write=0 / stats-read=0 / ipratio=1.40 / pbratio=1.30 / aq-mode=2 / aq-strength=0.80 / cutree / zone-count=0 / no-strict-cbr / qg-size=16 / no-rc-grain / qpmax=69 / qpmin=0 / sar=0 / overscan=0 / videoformat=5 / range=0 / colorprim=1 / transfer=2 / colormatrix=2 / chromaloc=0 / display-window=0 / max-cll=0,0 / min-luma=0 / max-luma=1023 / log2-max-poc-lsb=8 / vui-timing-info / vui-hrd-info / slices=1 / opt-qp-pps / opt-ref-list-length-pps / no-multi-pass-opt-rps / scenecut-bias=0.05 / no-opt-cu-delta-qp / no-aq-motion / no-hdr / no-hdr-opt / refine-level=5 / no-limit-sao
  33. Default                                  : Yes
  34. Forced                                   : No
  35. Color range                              : Limited
  36. Color primaries                          : BT.709
  37. Audio #1
  38. ID                                       : 2
  39. Format                                   : AC-3
  40. Format/Info                              : Audio Coding 3
  41. Commercial name                          : Dolby Digital
  42. Codec ID                                 : A_AC3
  43. Duration                                 : 2 h 30 min
  44. Bit rate mode                            : Constant
  45. Bit rate                                 : 640 kb/s
  46. Channel(s)                               : 6 channels
  47. Channel layout                           : L R C LFE Ls Rs
  48. Sampling rate                            : 48.0 kHz
  49. Frame rate                               : 31.250 FPS (1536 SPF)
  50. Compression mode                         : Lossy
  51. Stream size                              : 690 MiB (10%)
  52. Language                                 : English
  53. Service kind                             : Complete Main
  54. Default                                  : Yes
  55. Forced                                   : No
  56. Audio #2
  57. ID                                       : 3
  58. Format                                   : AC-3
  59. Format/Info                              : Audio Coding 3
  60. Commercial name                          : Dolby Digital
  61. Codec ID                                 : A_AC3
  62. Duration                                 : 2 h 29 min
  63. Bit rate mode                            : Constant
  64. Bit rate                                 : 256 kb/s
  65. Channel(s)                               : 2 channels
  66. Channel layout                           : L R
  67. Sampling rate                            : 48.0 kHz
  68. Frame rate                               : 31.250 FPS (1536 SPF)
  69. Compression mode                         : Lossy
  70. Delay relative to video                  : 42 s 0 ms
  71. Stream size                              : 275 MiB (4%)
  72. Language                                 : Chinese
  73. Service kind                             : Complete Main
  74. Default                                  : No
  75. Forced                                   : No
  76. Text #1
  77. ID                                       : 4
  78. Format                                   : PGS
  79. Muxing mode                              : zlib
  80. Codec ID                                 : S_HDMV/PGS
  81. Codec ID/Info                            : Picture based subtitle format used on BDs/HD-DVDs
  82. Duration                                 : 2 h 20 min
  83. Bit rate                                 : 15.6 kb/s
  84. Count of elements                        : 5052
  85. Stream size                              : 15.7 MiB (0%)
  86. Language                                 : English
  87. Default                                  : Yes
  88. Forced                                   : No
  89. Text #2
  90. ID                                       : 5
  91. Format                                   : PGS
  92. Muxing mode                              : zlib
  93. Codec ID                                 : S_HDMV/PGS
  94. Codec ID/Info                            : Picture based subtitle format used on BDs/HD-DVDs
  95. Duration                                 : 2 h 30 min
  96. Bit rate                                 : 16.2 kb/s
  97. Count of elements                        : 4858
  98. Stream size                              : 17.4 MiB (0%)
  99. Language                                 : Chinese
  100. Default                                  : No
  101. Forced                                   : No
  102. Menu
  103. 00:00:00.000                             : en:Chapter 01
  104. 00:06:53.204                             : en:Chapter 02
  105. 00:14:40.004                             : en:Chapter 03
  106. 00:23:58.687                             : en:Chapter 04
  107. 00:35:55.653                             : en:Chapter 05
  108. 00:41:14.013                             : en:Chapter 06
  109. 00:46:35.876                             : en:Chapter 07
  110. 00:53:38.798                             : en:Chapter 08
  111. 01:00:27.957                             : en:Chapter 09
  112. 01:09:08.060                             : en:Chapter 10
  113. 01:19:38.023                             : en:Chapter 11
  114. 01:25:12.690                             : en:Chapter 12
  115. 01:36:23.569                             : en:Chapter 13
  116. 01:40:40.951                             : en:Chapter 14
  117. 01:47:22.853                             : en:Chapter 15
  118. 01:53:36.267                             : en:Chapter 16
  119. 02:03:33.114                             : en:Chapter 17
  120. 02:10:14.348                             : en:Chapter 18
  121. 02:16:24.801                             : en:Chapter 19
  122. 02:22:05.350                             : en:Chapter 20
复制代码




TAGS 剧情 历史 传记 /

磁力链:
  • magnet:?xt=urn:btih:BE9ADEAA9B5D3B61123E35467341A4148B935E1A
上传的附件:
BT9527电影天堂 1、BT9527电影天堂提供的BT文件均来源于互联网抓取,只供网友学习交流、技术提升使用。
2、我们遵守BitTorrent点对点协议原则,任何版权问题请联系原资源发布商,我们不处理任何版权纠纷,谢谢!如有争议请联系邮箱:BT9527#hotmail.com(#换成@)
3、如果您发现某页面或地址有错误,请联系站长邮箱BT9527#hotmail.com(#换成@),我们会尽快处理。您的热心是对BT9527电影天堂最大的支持。
4、本站建议去正规影院观看电影以支持电影行业发展。
最新回复 (0)

你可以在 登录 or 注册 后,对此帖发表评论!

返回
发新帖