死亡诗社[国英多音轨/中英字幕].Dead.Poets.Society.1989.BluRay.1080p.x265.10bit.3Audio-MiniHD 6.07GB

版主小s 6月前 313



◎译  名 死亡诗社 / 暴雨骄阳(港) / 春风化雨(台) / 壮志骄阳
◎片  名 Dead Poets Society
◎年  代 1989
◎产  地 美国
◎类  别 剧情
◎语  言 英语 / 拉丁语
◎上映日期 1989-06-02(多伦多首映) / 1989-06-09(美国)
◎IMDb链接 https://www.imdb.com/title/tt0097165/
◎豆瓣评分 9.1/10 (644066人评价)
◎豆瓣链接 https://movie.douban.com/subject/1291548/
◎片  长 128 分钟
◎导  演 彼得·威尔 Peter Weir (id:1022721)
◎编  剧 汤姆·舒尔曼 Tom Schulman (id:1296987)
◎演  员 罗宾·威廉姆斯 Robin Williams (id:1009241)
       罗伯特·肖恩·莱纳德 Robert Sean Leonard (id:1031873)
       伊桑·霍克 Ethan Hawke (id:1018984)
       乔西·查尔斯 Josh Charles (id:1049551)
       盖尔·汉森 Gale Hansen (id:1323643)
       迪伦·库斯曼 Dylan Kussman (id:1342079)
       阿勒隆·鲁杰罗 Allelon Ruggiero (id:1342078)
       詹姆斯·沃特斯顿 James Waterston (id:1167539)
       诺曼·劳埃德 Norman Lloyd (id:1118329)
       柯特伍德·史密斯 Kurtwood Smith (id:1010600)
       卡拉·贝尔韦尔 Carla Belver (id:1342077)
       利昂·波纳尔 Leon Pownall (id:1127866)
       乔治·马丁 George Martin (id:1125954)
       乔·奥菲耶里 Joe Aufiery (id:1342075)
       马特·凯里 Matt Carey (id:1342074)
       凯文·库尼 Kevin Cooney (id:1054975)
       拉腊·弗林·鲍尔 Lara Flynn Boyle (id:1000059)
       亚历桑德拉·鲍尔斯 Alexandra Powers (id:1049984)
       梅洛拉·沃尔特斯 Melora Walters (id:1027275)
       帕梅拉·伯勒尔 Pamela Burrell (id:1067991)
       约翰·库宁汉姆 John Cunningham (id:1010765)
       迪布拉·穆尼 Debra Mooney (id:1133075)
       库尔特·莱特纳 Kurt Leitner (id:1123253)
       凯瑟·斯内德 Keith Snyder (id:1297989)
       霍纳斯·斯蒂克洛瑞斯 Jonas Stiklorius (id:1150808)
       杰米·肯尼迪 Jamie Kennedy (id:1019042)
       史蒂文·哈夫特 Steven Haft (id:1285780)
       邓肯·亨德森 Duncan Henderson (id:1286414)
       莫里斯·雅尔 Maurice Jarre (id:1050191)
       约翰·H·安德森 John H. Anderson (id:1277210)
       温迪·斯蒂特斯 Wendy Stites (id:1298469)
       Susan A. Cabral Susan A. Cabral (id:1276345)

◎简  介
  威尔顿预备学院以其沉稳凝重的教学风格和较高的升学率闻名,作为其毕业班的学生,理想就是升入名校。新学期文学老师约翰·基汀(罗宾·威廉姆斯 饰)的到来如同一阵春风,一反传统名校的严肃刻板。                                    
                                基汀带学生们在校史楼内聆听死亡的声音,反思生的意义 ;让男生们在绿茵场上宣读自己的理想;鼓励学生站在课桌上,用新的视角俯瞰世界。老师自由发散式的哲学思维让学生内心产生强烈的共鸣,他们渐渐学会自己思考与求索,勇敢的追问人生的路途,甚至违反门禁,成立死亡诗社,在山洞里击节而歌!                                    
                                基汀教授、基汀老师、基汀队长,他的教育宛若春风化雨,润物无声的留在每个人心里…

◎获奖情况 (共4项)
  第62届奥斯卡金像奖 (1990)
  最佳影片(提名)
  最佳导演(提名)
   └──彼得·威尔 (id:1022721)
  最佳男主角(提名)
   └──罗宾·威廉姆斯 (id:1009241)
  最佳原创剧本
   └──汤姆·舒尔曼 (id:1296987)

  1. ##### MediaInfo ######
  2. General
  3. Unique ID                                : 237727486199488966155934087791091581912 (0xB2D8A5FF5910B74F946CAD90CA5703D8)
  4. Complete name                            : Dead.Poets.Society.1989.BluRay.1080p.x265.10bit.3Audio-MiniHD.mkv
  5. Format                                   : Matroska
  6. Format version                           : Version 4
  7. File size                                : 6.07 GiB
  8. Duration                                 : 2 h 8 min
  9. Overall bit rate                         : 6 753 kb/s
  10. Encoded date                             : UTC 2017-09-28 20:58:06
  11. Writing application                      : mkvmerge v11.0.0 ('Alive') 64bit
  12. Writing library                          : libebml v1.3.4 + libmatroska v1.4.5
  13. Video
  14. ID                                       : 1
  15. Format                                   : HEVC
  16. Format/Info                              : High Efficiency Video Coding
  17. Codec ID                                 : V_MPEGH/ISO/HEVC
  18. Duration                                 : 2 h 8 min
  19. Bit rate                                 : 5 604 kb/s
  20. Width                                    : 1 920 pixels
  21. Height                                   : 1 038 pixels
  22. Display aspect ratio                     : 1.85:1
  23. Frame rate mode                          : Constant
  24. Frame rate                               : 23.976 (24000/1001/53354) FPS
  25. Bits/(Pixel*Frame)                       : 0.117
  26. Stream size                              : 5.04 GiB (83%)
  27. Default                                  : Yes
  28. Forced                                   : No
  29. Audio #1
  30. ID                                       : 2
  31. Format                                   : AC-3
  32. Format/Info                              : Audio Coding 3
  33. Commercial name                          : Dolby Digital
  34. Codec ID                                 : A_AC3
  35. Duration                                 : 2 h 8 min
  36. Bit rate mode                            : Constant
  37. Bit rate                                 : 640 kb/s
  38. Channel(s)                               : 6 channels
  39. Channel layout                           : L R C LFE Ls Rs
  40. Sampling rate                            : 48.0 kHz
  41. Frame rate                               : 31.250 FPS (1536 SPF)
  42. Compression mode                         : Lossy
  43. Stream size                              : 589 MiB (9%)
  44. Language                                 : English
  45. Service kind                             : Complete Main
  46. Default                                  : Yes
  47. Forced                                   : No
  48. Audio #2
  49. ID                                       : 3
  50. Format                                   : AC-3
  51. Format/Info                              : Audio Coding 3
  52. Commercial name                          : Dolby Digital
  53. Codec ID                                 : A_AC3
  54. Duration                                 : 2 h 8 min
  55. Bit rate mode                            : Constant
  56. Bit rate                                 : 192 kb/s
  57. Channel(s)                               : 2 channels
  58. Channel layout                           : L R
  59. Sampling rate                            : 48.0 kHz
  60. Frame rate                               : 31.250 FPS (1536 SPF)
  61. Compression mode                         : Lossy
  62. Stream size                              : 177 MiB (3%)
  63. Language                                 : Chinese
  64. Service kind                             : Complete Main
  65. Default                                  : No
  66. Forced                                   : No
  67. Audio #3
  68. ID                                       : 4
  69. Format                                   : AC-3
  70. Format/Info                              : Audio Coding 3
  71. Commercial name                          : Dolby Digital
  72. Codec ID                                 : A_AC3
  73. Duration                                 : 2 h 8 min
  74. Bit rate mode                            : Constant
  75. Bit rate                                 : 192 kb/s
  76. Channel(s)                               : 2 channels
  77. Channel layout                           : L R
  78. Sampling rate                            : 48.0 kHz
  79. Frame rate                               : 31.250 FPS (1536 SPF)
  80. Compression mode                         : Lossy
  81. Stream size                              : 177 MiB (3%)
  82. Language                                 : Chinese
  83. Service kind                             : Complete Main
  84. Default                                  : No
  85. Forced                                   : No
  86. Text #1
  87. ID                                       : 5
  88. Format                                   : PGS
  89. Muxing mode                              : zlib
  90. Codec ID                                 : S_HDMV/PGS
  91. Codec ID/Info                            : Picture based subtitle format used on BDs/HD-DVDs
  92. Duration                                 : 2 h 4 min
  93. Bit rate                                 : 33.8 kb/s
  94. Count of elements                        : 3486
  95. Stream size                              : 30.1 MiB (0%)
  96. Language                                 : English
  97. Default                                  : Yes
  98. Forced                                   : No
  99. Text #2
  100. ID                                       : 6
  101. Format                                   : PGS
  102. Muxing mode                              : zlib
  103. Codec ID                                 : S_HDMV/PGS
  104. Codec ID/Info                            : Picture based subtitle format used on BDs/HD-DVDs
  105. Duration                                 : 2 h 4 min
  106. Bit rate                                 : 17.7 kb/s
  107. Count of elements                        : 3230
  108. Stream size                              : 15.7 MiB (0%)
  109. Language                                 : Chinese
  110. Default                                  : No
  111. Forced                                   : No
  112. Text #3
  113. ID                                       : 7
  114. Format                                   : PGS
  115. Muxing mode                              : zlib
  116. Codec ID                                 : S_HDMV/PGS
  117. Codec ID/Info                            : Picture based subtitle format used on BDs/HD-DVDs
  118. Duration                                 : 2 h 4 min
  119. Bit rate                                 : 28.3 kb/s
  120. Count of elements                        : 3230
  121. Stream size                              : 25.2 MiB (0%)
  122. Language                                 : Chinese
  123. Default                                  : No
  124. Forced                                   : No
  125. Text #4
  126. ID                                       : 8
  127. Format                                   : PGS
  128. Muxing mode                              : zlib
  129. Codec ID                                 : S_HDMV/PGS
  130. Codec ID/Info                            : Picture based subtitle format used on BDs/HD-DVDs
  131. Duration                                 : 2 h 4 min
  132. Bit rate                                 : 17.9 kb/s
  133. Count of elements                        : 3230
  134. Stream size                              : 15.9 MiB (0%)
  135. Language                                 : Chinese
  136. Default                                  : No
  137. Forced                                   : No
  138. Text #5
  139. ID                                       : 9
  140. Format                                   : PGS
  141. Muxing mode                              : zlib
  142. Codec ID                                 : S_HDMV/PGS
  143. Codec ID/Info                            : Picture based subtitle format used on BDs/HD-DVDs
  144. Duration                                 : 2 h 4 min
  145. Bit rate                                 : 28.9 kb/s
  146. Count of elements                        : 3230
  147. Stream size                              : 25.7 MiB (0%)
  148. Language                                 : Chinese
  149. Default                                  : No
  150. Forced                                   : No
  151. Menu
  152. 00:00:00.000                             : en:Chapter 01
  153. 00:11:17.635                             : en:Chapter 02
  154. 00:21:03.637                             : en:Chapter 03
  155. 00:36:09.500                             : en:Chapter 04
  156. 00:42:59.118                             : en:Chapter 05
  157. 00:50:28.442                             : en:Chapter 06
  158. 01:03:38.189                             : en:Chapter 07
  159. 01:11:33.414                             : en:Chapter 08
  160. 01:23:53.153                             : en:Chapter 09
  161. 02:00:07.575                             : en:Chapter 10
复制代码




TAGS 剧情

磁力链:
  • magnet:?xt=urn:btih:1C4181E1EE2AE4310C31BBDD0944390CD4AE1E13
上传的附件:
BT9527电影天堂 1、BT9527电影天堂提供的BT文件均来源于互联网抓取,只供网友学习交流、技术提升使用。
2、我们遵守BitTorrent点对点协议原则,任何版权问题请联系原资源发布商,我们不处理任何版权纠纷,谢谢!如有争议请联系邮箱:BT9527#hotmail.com(#换成@)
3、如果您发现某页面或地址有错误,请联系站长邮箱BT9527#hotmail.com(#换成@),我们会尽快处理。您的热心是对BT9527电影天堂最大的支持。
4、本站建议去正规影院观看电影以支持电影行业发展。
最新回复 (0)

你可以在 登录 or 注册 后,对此帖发表评论!

返回
发新帖