龙之心2[简繁英字幕].Dragonheart.A.New.Beginning.2000.BluRay.1080p.DTS.HDMA5.1.x265.10bit-CTRLHD 6.21GB

版主小s 5月前 414



◎标  题 龙之心2
◎译  名 魔龙传奇2 / 魔龙传奇 2 / 魔幻屠龙 2 / 屠龙记 2
◎片  名 Dragonheart: A New Beginning
◎年  代 2000
◎产  地 美国
◎类  别 剧情 / 喜剧 / 动作 / 惊悚 / 奇幻 / 冒险
◎语  言 英语
◎上映日期 2000-08-08
◎IMDb评分 4.6/10 (4688人评价)
◎IMDb链接 https://www.imdb.com/title/tt0214641/
◎豆瓣评分 5.8/10 (210人评价)
◎豆瓣链接 https://movie.douban.com/subject/1305673/
◎片  长 84 分钟
◎编  剧 Shari Goodhartz Shari Goodhartz
       帕特里克·里德·约翰逊 Patrick Read Johnson
◎演  员 Gustáv Kyselica Gustáv Kyselica
       克里斯托弗·马斯特森 Christopher Masterson
       哈里·范·戈库姆 Harry Van Gorkum
       罗比·本森 Robby Benson
       汤姆·伯克 Tom Burke
       区亨利 Henry O
       Vlado Durdík Vlado Durdík
       Rona Figueroa Rona Figueroa
       Lubomir Misak Lubomir Misak
       John Woodnutt John Woodnutt
       罗曼·扬科维奇 Roman Jankovic
       Karin Hayduova Karin Hayduova
       弗拉基米尔·弗迪克 Vladimir Furdik

◎标  签 科幻电影(龙之心2) / 奇幻 / 美国 / 魔幻 / 美国电影 / 电影 / 2000 / 科幻

◎简  介
    乔夫原为修道院的马僮,某日偶然发现一个秘密:原本已绝种的龙,竟然还有一只还存在,于是乔夫和这只名叫德瑞克的龙成为了好友;此时,来自中国的关师父和莉安,揭露了龙的秘密,原来在双尾彗星返回之际,一股古老邪恶的力量,将利用龙的心统御人类。德瑞克通过了关师父的考验,证明了他的本质毫无邪恶的成份,于是关师父开始训练德瑞克喷火和喷冰,预备对付邪恶的力量,但真正可怕的秘密,却在此时揭露……

  1. ##### MediaInfo ######
  2. General
  3. Unique ID                                : 308835575756269084515458563173954141294 (0xE857917DB04DA500D9EB70B0CA48BC6E)
  4. Complete name                            : Dragonheart.A.New.Beginning.2000.BluRay.1080p.DTS.HDMA5.1.x265.10bit-CTRLHD.mkv
  5. Format                                   : Matroska
  6. Format version                           : Version 4
  7. File size                                : 6.21 GiB
  8. Duration                                 : 1 h 24 min
  9. Overall bit rate mode                    : Variable
  10. Overall bit rate                         : 10.6 Mb/s
  11. Encoded date                             : UTC 2022-06-03 23:44:58
  12. Writing application                      : mkvmerge v68.0.0.1 ('The Curtain') 64-bit
  13. Writing library                          : libebml v1.4.2 + libmatroska v1.6.4
  14. Video
  15. ID                                       : 1
  16. Format                                   : HEVC
  17. Format/Info                              : High Efficiency Video Coding
  18. Format profile                           : Main 10@L5@Main
  19. Codec ID                                 : V_MPEGH/ISO/HEVC
  20. Duration                                 : 1 h 24 min
  21. Bit rate                                 : 6 209 kb/s
  22. Width                                    : 1 920 pixels
  23. Height                                   : 1 080 pixels
  24. Display aspect ratio                     : 16:9
  25. Frame rate mode                          : Constant
  26. Frame rate                               : 23.976 (23976/1000/53354) FPS
  27. Color space                              : YUV
  28. Chroma subsampling                       : 4:2:0
  29. Bit depth                                : 10 bits
  30. Bits/(Pixel*Frame)                       : 0.125
  31. Stream size                              : 3.64 GiB (59%)
  32. Writing library                          : x265 3.5+36-9b59d4554:[Windows][GCC 11.2.0][64 bit] 10bit
  33. Encoding settings                        : cpuid=533541111039 / frame-threads=5 / numa-pools=32 / wpp / no-pmode / no-pme / no-psnr / no-ssim / log-level=2 / input-csp=1 / input-res=1920x1080 / interlace=0 / total-frames=0 / level-idc=0 / high-tier=1 / uhd-bd=0 / ref=6 / no-allow-non-conformance / no-repeat-headers / annexb / no-aud / no-eob / no-eos / no-hrd / info / hash=0 / no-temporal-layers / no-open-gop / min-keyint=23 / keyint=250 / gop-lookahead=0 / bframes=12 / b-adapt=2 / b-pyramid / bframe-bias=0 / rc-lookahead=48 / lookahead-slices=6 / NTMzNTQ=uuDQuD2mJt9fsCf / scenecut=40 / no-hist-scenecut / radl=0 / no-splice / no-intra-refresh / ctu=64 / min-cu-size=8 / rect / amp / max-tu-size=32 / tu-inter-depth=1 / tu-intra-depth=1 / limit-tu=0 / rdoq-level=0 / dynamic-rd=0.00 / no-ssim-rd / signhide / no-tskip / nr-intra=0 / nr-inter=0 / no-constrained-intra / no-strong-intra-smoothing / max-merge=3 / limit-refs=1 / no-limit-modes / me=3 / subme=7 / merange=64 / temporal-mvp / no-frame-dup / no-hme / weightp / weightb / no-analyze-src-pics / deblock=0:0 / no-sao / no-sao-non-deblock / rd=4 / selective-sao=0 / early-skip / rskip / no-fast-intra / no-tskip-fast / no-cu-lossless / b-intra / no-splitrd-skip / rdpenalty=0 / psy-rd=2.00 / psy-rdoq=0.00 / no-rd-refine / no-lossless / cbqpoffs=0 / crqpoffs=0 / rc=crf / crf=18.0 / qcomp=0.60 / qpstep=4 / stats-write=0 / stats-read=0 / ipratio=1.40 / pbratio=1.30 / aq-mode=1 / aq-strength=1.00 / cutree / zone-count=0 / no-strict-cbr / qg-size=32 / no-rc-grain / qpmax=69 / qpmin=0 / no-const-vbv / sar=0 / overscan=0 / videoformat=5 / range=0 / colorprim=2 / transfer=2 / colormatrix=2 / chromaloc=0 / display-window=0 / cll=0,0 / min-luma=0 / max-luma=1023 / log2-max-poc-lsb=8 / vui-timing-info / vui-hrd-info / slices=1 / no-opt-qp-pps / no-opt-ref-list-length-pps / no-multi-pass-opt-rps / scenecut-bias=0.05 / hist-threshold=0.03 / no-opt-cu-delta-qp / aq-motion / no-hdr10 / no-hdr10-opt / no-dhdr10-opt / no-idr-recovery-sei / analysis-reuse-level=0 / analysis-save-reuse-level=0 / analysis-load-reuse-level=0 / scale-factor=0 / refine-intra=0 / refine-inter=0 / refine-mv=1 / refine-ctu-distortion=0 / no-limit-sao / ctu-info=0 / no-lowpass-dct / refine-analysis-type=0 / copy-pic=1 / max-ausize-factor=1.0 / no-dynamic-refine / no-single-sei / no-hevc-aq / no-svt / no-field / qp-adaptation-range=1.00 / scenecut-aware-qp=0conformance-window-offsets / right=0 / bottom=0 / NTMzNTQ= / decoder-max-rate=0 / no-vbv-live-multi-pass
  34. Default                                  : Yes
  35. Forced                                   : No
  36. Audio
  37. ID                                       : 2
  38. ID in the original source medium         : 4352 (0x1100)
  39. Format                                   : DTS XLL
  40. Format/Info                              : Digital Theater Systems
  41. Commercial name                          : DTS-HD Master Audio
  42. Codec ID                                 : A_DTS
  43. Duration                                 : 1 h 24 min
  44. Bit rate mode                            : Variable
  45. Bit rate                                 : 4 318 kb/s
  46. Channel(s)                               : 6 channels
  47. Channel layout                           : C L R Ls Rs LFE
  48. Sampling rate                            : 48.0 kHz
  49. Frame rate                               : 93.750 FPS (512 SPF)
  50. Bit depth                                : 24 bits
  51. Compression mode                         : Lossless
  52. Stream size                              : 2.53 GiB (41%)
  53. Language                                 : English
  54. Default                                  : Yes
  55. Forced                                   : No
  56. Original source medium                   : Blu-ray
  57. Text #1
  58. ID                                       : 3
  59. ID in the original source medium         : 4608 (0x1200)
  60. Format                                   : PGS
  61. Muxing mode                              : zlib
  62. Codec ID                                 : S_HDMV/PGS
  63. Codec ID/Info                            : Picture based subtitle format used on BDs/HD-DVDs
  64. Duration                                 : 1 h 23 min
  65. Bit rate                                 : 24.7 kb/s
  66. Count of elements                        : 1729
  67. Stream size                              : 14.7 MiB (0%)
  68. Title                                    : CHS&ENG
  69. Language                                 : Chinese
  70. Default                                  : Yes
  71. Forced                                   : No
  72. Original source medium                   : Blu-ray
  73. Text #2
  74. ID                                       : 4
  75. ID in the original source medium         : 4609 (0x1201)
  76. Format                                   : PGS
  77. Muxing mode                              : zlib
  78. Codec ID                                 : S_HDMV/PGS
  79. Codec ID/Info                            : Picture based subtitle format used on BDs/HD-DVDs
  80. Duration                                 : 1 h 23 min
  81. Bit rate                                 : 25.3 kb/s
  82. Count of elements                        : 1729
  83. Stream size                              : 15.1 MiB (0%)
  84. Title                                    : CHT&ENG
  85. Language                                 : Chinese
  86. Default                                  : Yes
  87. Forced                                   : No
  88. Original source medium                   : Blu-ray
  89. Text #3
  90. ID                                       : 5
  91. ID in the original source medium         : 4610 (0x1202)
  92. Format                                   : PGS
  93. Muxing mode                              : zlib
  94. Codec ID                                 : S_HDMV/PGS
  95. Codec ID/Info                            : Picture based subtitle format used on BDs/HD-DVDs
  96. Duration                                 : 1 h 23 min
  97. Bit rate                                 : 13.2 kb/s
  98. Count of elements                        : 1729
  99. Stream size                              : 7.87 MiB (0%)
  100. Title                                    : CHS
  101. Language                                 : Chinese
  102. Default                                  : Yes
  103. Forced                                   : No
  104. Original source medium                   : Blu-ray
  105. Text #4
  106. ID                                       : 6
  107. ID in the original source medium         : 4611 (0x1203)
  108. Format                                   : PGS
  109. Muxing mode                              : zlib
  110. Codec ID                                 : S_HDMV/PGS
  111. Codec ID/Info                            : Picture based subtitle format used on BDs/HD-DVDs
  112. Duration                                 : 1 h 23 min
  113. Bit rate                                 : 13.8 kb/s
  114. Count of elements                        : 1729
  115. Stream size                              : 8.22 MiB (0%)
  116. Title                                    : CHT
  117. Language                                 : Chinese
  118. Default                                  : Yes
  119. Forced                                   : No
  120. Original source medium                   : Blu-ray
  121. Text #5
  122. ID                                       : 7
  123. ID in the original source medium         : 4612 (0x1204)
  124. Format                                   : PGS
  125. Muxing mode                              : zlib
  126. Codec ID                                 : S_HDMV/PGS
  127. Codec ID/Info                            : Picture based subtitle format used on BDs/HD-DVDs
  128. Duration                                 : 1 h 23 min
  129. Bit rate                                 : 38.4 kb/s
  130. Count of elements                        : 2368
  131. Stream size                              : 22.9 MiB (0%)
  132. Title                                    : ENG
  133. Language                                 : English
  134. Default                                  : Yes
  135. Forced                                   : No
  136. Original source medium                   : Blu-ray
  137. Menu
  138. 00:00:00.000                             : en:Chapter 01
  139. 00:10:01.017                             : en:Chapter 02
  140. 00:20:02.034                             : en:Chapter 03
  141. 00:30:02.133                             : en:Chapter 04
  142. 00:40:02.775                             : en:Chapter 05
  143. 00:50:03.542                             : en:Chapter 06
  144. 01:00:04.434                             : en:Chapter 07
  145. 01:10:04.533                             : en:Chapter 08
  146. 01:20:05.675                             : en:Chapter 09
复制代码




TAGS 动作 奇幻 冒险 剧情 惊悚 喜剧 /

磁力链:
  • magnet:?xt=urn:btih:A7434E72C295EEE3E998D3CCCBD97F8644B0E852
上传的附件:
BT9527电影天堂 1、BT9527电影天堂提供的BT文件均来源于互联网抓取,只供网友学习交流、技术提升使用。
2、我们遵守BitTorrent点对点协议原则,任何版权问题请联系原资源发布商,我们不处理任何版权纠纷,谢谢!如有争议请联系邮箱:BT9527#hotmail.com(#换成@)
3、如果您发现某页面或地址有错误,请联系站长邮箱BT9527#hotmail.com(#换成@),我们会尽快处理。您的热心是对BT9527电影天堂最大的支持。
4、本站建议去正规影院观看电影以支持电影行业发展。
最新回复 (0)

你可以在 登录 or 注册 后,对此帖发表评论!

返回
发新帖