正发生[简繁字幕].Happening.2021.BluRay.1080p.DTS-HD.MA5.1.x265.10bit-ALT 9.01GB

版主小s 6月前 409



◎译  名 正发生 / Happening
◎片  名 L'événement
◎年  代 2021
◎产  地 法国
◎类  别 剧情
◎语  言 法语
◎上映日期 2021-09-06(威尼斯电影节) / 2021-11-24(法国)
◎IMDb链接 https://www.imdb.com/title/tt13880104/
◎豆瓣评分 7.8/10 (8375人评价)
◎豆瓣链接 https://movie.douban.com/subject/35318021/
◎片  长 100分钟
◎导  演 奥黛丽·迪万 Audrey Diwan (id:1348320)
◎编  剧 奥黛丽·迪万 Audrey Diwan (id:1348320)
       玛西娅·罗马诺 Marcia Romano (id:1329031)
◎演  员 安娜玛丽亚·沃特鲁梅 Anamaria Vartolomei (id:1316380)
       卡西·莫泰·克莱恩 Kacey Mottet Klein (id:1331232)
       卢安娜·巴杰拉米 Luàna Bajrami (id:1428889)
       露易丝·奥利-狄奎罗 Louise Orry-Diquéro (id:1400456)
       路易丝·舍维约特 Louise Chevillotte (id:1381078)
       皮奥·马麦 Pio Marma? (id:1311921)
       桑德里娜·博内尔 Sandrine Bonnaire (id:1018278)
       安娜·穆格拉利斯 Anna Mouglalis (id:1045023)
       阿丽斯·德·朗克桑 Alice de Lencquesaing (id:1316091)
       法布里齐奥·隆吉奥内 Fabrizio Rongione (id:1319699)
       塞德里克·梅斯伯格 Cédric Meusburger (id:1437637)
       Julien Frison Julien Frison (id:1237316)
        Leonor Oberson (id:1467645)
        Alice Girard (id:1467647)

◎简  介
  改编自法国作家安妮·艾诺的自传作品,原著讲述1960年代还是学生的安妮,因堕胎所引发的心理和生理双重创伤。

◎获奖情况 (共7项)
  第78届威尼斯电影节 (2021)
  主竞赛单元 金狮奖
   └──奥黛丽·迪万 (id:1348320)
  费比西奖(国际影评人联盟奖) 竞赛单元费比西奖
   └──奥黛丽·迪万 (id:1348320)

  第75届英国电影学院奖 (2022)
  电影奖 最佳导演(提名)
   └──奥黛丽·迪万 (id:1348320)

  第47届法国凯撒电影奖 (2022)
  最佳影片(提名)
  最佳导演(提名)
   └──奥黛丽·迪万 (id:1348320)
  最佳新人女演员
   └──安娜玛丽亚·沃特鲁梅 (id:1316380)
  最佳改编剧本(提名)

  1. ##### MediaInfo ######
  2. General
  3. Unique ID                                : 151062592915407810958344007087672237166 (0x71A598DCAD2FB11AFEA8E50AA2639C6E)
  4. Complete name                            : Happening.2021.BluRay.1080p.DTS-HD.MA5.1.x265.10bit-ALT.mkv
  5. Format                                   : Matroska
  6. Format version                           : Version 4
  7. File size                                : 9.01 GiB
  8. Duration                                 : 1 h 39 min
  9. Overall bit rate mode                    : Variable
  10. Overall bit rate                         : 13.0 Mb/s
  11. Encoded date                             : UTC 2022-06-04 16:13:56
  12. Writing application                      : mkvmerge v49.0.0 ('Sick Of Losing Soulmates') 64-bit
  13. Writing library                          : libebml v1.4.0 + libmatroska v1.6.1
  14. Video
  15. ID                                       : 1
  16. Format                                   : HEVC
  17. Format/Info                              : High Efficiency Video Coding
  18. Format profile                           : Main 10@L5.1@High
  19. Codec ID                                 : V_MPEGH/ISO/HEVC
  20. Duration                                 : 1 h 39 min
  21. Bit rate                                 : 9 471 kb/s
  22. Width                                    : 1 474 pixels
  23. Height                                   : 1 080 pixels
  24. Display aspect ratio                     : 4:3
  25. Frame rate mode                          : Constant
  26. Frame rate                               : 24.000 FPS
  27. Color space                              : YUV
  28. Chroma subsampling                       : 4:2:0
  29. Bit depth                                : 10 bits
  30. Bits/(Pixel*Frame)                       : 0.248
  31. Stream size                              : 6.57 GiB (73%)
  32. Title                                    : HEVC, x265Main10@L5.1@High, 24 fps @ 9471 kbps
  33. Writing library                          : x265 3.5+36-1f2c8da77:[Windows][GCC 11.2.0][64 bit] 10bit
  34. Encoding settings                        : cpuid=533541049071 / frame-threads=3 / numa-pools=8 / wpp / no-pmode / no-pme / no-psnr / no-ssim / log-level=2 / input-csp=1 / input-res=1474x1080 / interlace=0 / total-frames=143064 / level-idc=51 / high-tier=1 / uhd-bd=0 / ref=5 / no-allow-non-conformance / no-repeat-headers / annexb / no-aud / no-eob / no-eos / no-hrd / info / hash=0 / no-temporal-layers / open-gop / min-keyint=24 / keyint=240 / gop-lookahead=0 / bframes=6 / b-adapt=2 / b-pyramid / bframe-bias=0 / rc-lookahead=40 / lookahead-slices=0 / NTMzNTQ=uuDQuD2mJt9fsCf / scenecut=40 / no-hist-scenecut / radl=0 / no-splice / no-intra-refresh / ctu=32 / min-cu-size=8 / no-rect / no-amp / max-tu-size=32 / tu-inter-depth=3 / tu-intra-depth=3 / limit-tu=4 / rdoq-level=2 / dynamic-rd=0.00 / no-ssim-rd / signhide / no-tskip / nr-intra=0 / nr-inter=0 / no-constrained-intra / no-strong-intra-smoothing / max-merge=4 / limit-refs=1 / limit-modes / me=3 / subme=4 / merange=25 / temporal-mvp / no-frame-dup / no-hme / weightp / weightb / no-analyze-src-pics / deblock=-3:-3 / no-sao / no-sao-non-deblock / rd=6 / selective-sao=0 / no-early-skip / rskip / no-fast-intra / no-tskip-fast / no-cu-lossless / b-intra / no-splitrd-skip / rdpenalty=0 / psy-rd=2.00 / psy-rdoq=1.00 / no-rd-refine / no-lossless / cbqpoffs=-2 / crqpoffs=-2 / rc=crf / crf=17.0 / qcomp=0.65 / qpstep=4 / stats-write=0 / stats-read=0 / vbv-maxrate=80000 / vbv-bufsize=80000 / vbv-init=0.9 / min-vbv-fullness=50.0 / max-vbv-fullness=80.0 / crf-max=0.0 / crf-min=0.0 / ipratio=1.40 / pbratio=1.30 / aq-mode=2 / aq-strength=0.85 / cutree / zone-count=0 / no-strict-cbr / qg-size=32 / no-rc-grain / qpmax=69 / qpmin=0 / no-const-vbv / sar=1 / overscan=0 / videoformat=5 / range=0 / colorprim=1 / transfer=1 / colormatrix=1 / chromaloc=0 / display-window=0 / cll=0,0 / min-luma=0 / max-luma=1023 / log2-max-poc-lsb=8 / vui-timing-info / vui-hrd-info / slices=1 / no-opt-qp-pps / no-opt-ref-list-length-pps / no-multi-pass-opt-rps / scenecut-bias=0.05 / hist-threshold=0.03 / no-opt-cu-delta-qp / no-aq-motion / no-hdr10 / no-hdr10-opt / no-dhdr10-opt / no-idr-recovery-sei / analysis-reuse-level=0 / analysis-save-reuse-level=0 / analysis-load-reuse-level=0 / scale-factor=0 / refine-intra=0 / refine-inter=0 / refine-mv=1 / refine-ctu-distortion=0 / no-limit-sao / ctu-info=0 / no-lowpass-dct / refine-analysis-type=0 / copy-pic=1 / max-ausize-factor=1.0 / no-dynamic-refine / no-single-sei / no-hevc-aq / no-svt / no-field / qp-adaptation-range=1.00 / scenecut-aware-qp=0conformance-window-offsets / right=0 / bottom=0 / NTMzNTQ= / decoder-max-rate=0 / no-vbv-live-multi-pass
  35. Language                                 : English
  36. Default                                  : Yes
  37. Forced                                   : No
  38. Color range                              : Limited
  39. Color primaries                          : BT.709
  40. Transfer characteristics                 : BT.709
  41. Matrix coefficients                      : BT.709
  42. Audio
  43. ID                                       : 2
  44. Format                                   : DTS XLL
  45. Format/Info                              : Digital Theater Systems
  46. Commercial name                          : DTS-HD Master Audio
  47. Codec ID                                 : A_DTS
  48. Duration                                 : 1 h 39 min
  49. Bit rate mode                            : Variable
  50. Bit rate                                 : 3 477 kb/s
  51. Channel(s)                               : 6 channels
  52. Channel layout                           : C L R Ls Rs LFE
  53. Sampling rate                            : 48.0 kHz
  54. Frame rate                               : 93.750 FPS (512 SPF)
  55. Bit depth                                : 24 bits
  56. Compression mode                         : Lossless
  57. Stream size                              : 2.41 GiB (27%)
  58. Title                                    : French DTS-HD Master Audio 5.1 @ 3476 Kbps
  59. Language                                 : French
  60. Default                                  : Yes
  61. Forced                                   : No
  62. Text #1
  63. ID                                       : 3
  64. Format                                   : PGS
  65. Codec ID                                 : S_HDMV/PGS
  66. Codec ID/Info                            : Picture based subtitle format used on BDs/HD-DVDs
  67. Duration                                 : 1 h 35 min
  68. Bit rate                                 : 15.7 kb/s
  69. Count of elements                        : 1707
  70. Stream size                              : 10.7 MiB (0%)
  71. Title                                    : Chs/SUP  简体
  72. Language                                 : Chinese
  73. Default                                  : Yes
  74. Forced                                   : No
  75. Text #2
  76. ID                                       : 4
  77. Format                                   : PGS
  78. Codec ID                                 : S_HDMV/PGS
  79. Codec ID/Info                            : Picture based subtitle format used on BDs/HD-DVDs
  80. Duration                                 : 1 h 35 min
  81. Bit rate                                 : 16.3 kb/s
  82. Count of elements                        : 1707
  83. Stream size                              : 11.1 MiB (0%)
  84. Title                                    : Cht/SUP  繁体
  85. Language                                 : Chinese
  86. Default                                  : No
  87. Forced                                   : No
  88. Menu
  89. 00:00:00.000                             : en:第 01 章
  90. 00:08:05.833                             : en:第 02 章
  91. 00:19:17.000                             : en:第 03 章
  92. 00:27:13.250                             : en:第 04 章
  93. 00:35:43.500                             : en:第 05 章
  94. 00:43:30.000                             : en:第 06 章
  95. 00:50:38.042                             : en:第 07 章
  96. 00:59:16.625                             : en:第 08 章
  97. 01:05:25.208                             : en:第 09 章
  98. 01:13:25.292                             : en:第 10 章
  99. 01:23:13.833                             : en:第 11 章
  100. 01:34:10.208                             : en:第 12 章
复制代码




TAGS 剧情

磁力链:
  • magnet:?xt=urn:btih:9464DC44343FEFBA5F679161A59FAC3321472A1E
上传的附件:
BT9527电影天堂 1、BT9527电影天堂提供的BT文件均来源于互联网抓取,只供网友学习交流、技术提升使用。
2、我们遵守BitTorrent点对点协议原则,任何版权问题请联系原资源发布商,我们不处理任何版权纠纷,谢谢!如有争议请联系邮箱:BT9527#hotmail.com(#换成@)
3、如果您发现某页面或地址有错误,请联系站长邮箱BT9527#hotmail.com(#换成@),我们会尽快处理。您的热心是对BT9527电影天堂最大的支持。
4、本站建议去正规影院观看电影以支持电影行业发展。
最新回复 (0)

你可以在 登录 or 注册 后,对此帖发表评论!

返回
发新帖