歌剧魅影[国英多音轨/简繁字幕].The.Phantom.Of.The.Opera.2004.UHD.BluRay.2160p.x265.10bit.HDR.2Audios-MiniHD 24.68GB

版主小s 6月前 344



◎译  名 歌剧魅影 / 歌声魅影(港) / 安德鲁洛伊韦伯之歌剧魅影(台) / 歌剧院幽灵 / 剧院魅影
◎片  名 The Phantom of the Opera
◎年  代 2004
◎产  地 英国 / 美国
◎类  别 剧情 / 爱情 / 惊悚 / 音乐
◎语  言 英语 / 意大利语
◎上映日期 2004-12-10(英国) / 2004-12-22(美国)
◎IMDb链接 https://www.imdb.com/title/tt0293508/
◎豆瓣评分 8.5/10 (151974人评价)
◎豆瓣链接 https://movie.douban.com/subject/1291554/
◎片  长 143 分钟
◎导  演 乔·舒马赫 Joel Schumacher (id:1049637)
◎编  剧 加斯顿·勒鲁 Gaston Leroux (id:1048410)
       安德鲁·洛伊德·韦伯 Andrew Lloyd Webber (id:1000309)
       乔·舒马赫 Joel Schumacher (id:1049637)
◎演  员 杰拉德·巴特勒 Gerard Butler (id:1040500)
       埃米·罗森 Emmy Rossum (id:1021998)
       帕特里克·威尔森 Patrick Wilson (id:1006919)
       米兰达·理查森 Miranda Richardson (id:1031812)
       明妮·德里弗 Minnie Driver (id:1004602)
       塞伦·希德 Ciarán Hinds (id:1004586)
       西蒙·卡洛 Simon Callow (id:1019096)
       维克多·麦奎尔 Victor McGuire (id:1121768)
       詹妮弗·艾莉森 Jennifer Ellison (id:1018130)
       穆雷·梅尔文 Murray Melvin (id:1275081)
       凯文·麦克纳利 Kevin McNally (id:1123046)
       詹姆斯·弗雷特 James Fleet (id:1325362)
       保罗·布洛克 Paul Brooke (id:1076545)
       莱明·卡莱姆罗 Ramin Karimloo (id:1206123)
       特里·罗林斯 Terry Rawlings (id:1295281)
       保罗·卡比 Paul Kirby (id:1288615)
       John Fenner John Fenner (id:1283565)
       西莉亚·博巴克 Celia Bobak (id:1278851)
       亚历山德拉·伯恩 Alexandra Byrne (id:1279783)
       Maralyn Sherman Maralyn Sherman (id:1297437)
       珍妮·希尔科尔 Jenny Shircore (id:1297495)
       苏珊·詹森 Suzanne Jansen (id:1287596)
       洛丽雅·谢泼德 Loulia Sheppard (id:1297417)
       乔恩·亨利·戈登 Jon Henry Gordon (id:1285185)
       Tricia Cameron Tricia Cameron (id:1276507)
       克拉斯·汉克 Claas Henke (id:1286435)
       肖恩·安德鲁·法登 Sean Andrew Faden (id:1283408)
       内森·麦克基尼斯 Nathan McGuinness (id:1291611)
       José Granell José Granell (id:1285285)
       Nigel Stone Nigel Stone (id:1298505)
       Laurent Ben-Mimoun Laurent Ben-Mimoun (id:1301846)
       David Jones David Jones (id:1303780)

◎简  介
  巴黎歌剧院合唱团的新人克莉斯汀(艾米?罗苏姆 Emmy Rossum 饰)最近进步神速,全因剧院内的一间古老房间内每晚都会传出一把优美的男声向她传授歌唱技巧。这个良师益友其实是一个人称“剧院魅影”(杰拉德?巴特勒 Gerard Butler 饰)的人,此人因样貌丑陋,自小便被父母抛弃,戴着面具隐居在剧院的地下室。“剧院魅影”内心其实深爱着克莉斯汀。                                    
                                一次偶然的机会,克莉斯汀有幸担当一部歌剧的主角。凭借从“剧院魅影”那里学得的丰富的歌唱技巧,克莉斯汀一炮而红,并被年轻英俊的剧院赞助人拉乌尔(帕特里克?威尔逊 Patrick Wilson 饰)看上了。两个年轻人很快堕入了爱河。“剧院魅影”伤透了心,认为是拉乌尔抢走了克莉斯汀,准备上演一出爱情复仇的大戏……

◎获奖情况 (共7项)
  第77届奥斯卡金像奖 (2005)
  最佳摄影(提名)
   └──约翰·马西森 (id:1045353)
  最佳艺术指导(提名)
  最佳原创歌曲(提名)

  第62届金球奖 (2005)
  电影类 最佳音乐/喜剧片(提名)
  电影类 音乐/喜剧片最佳女主角(提名)
   └──埃米·罗森 (id:1021998)
  电影类 最佳原创歌曲(提名)

  第29届日本电影学院奖 (2006)
  最佳外语片(提名)

  1. ##### MediaInfo ######
  2. General
  3. Unique ID                                : 221531284047512983755572754581892077718 (0xA6A95F944BC08ED31F0968C011739896)
  4. Complete name                            : The.Phantom.Of.The.Opera.2004.UHD.BluRay.2160p.x265.10bit.HDR.2Audios-MiniHD.mkv
  5. Format                                   : Matroska
  6. Format version                           : Version 4
  7. File size                                : 24.7 GiB
  8. Duration                                 : 2 h 21 min
  9. Overall bit rate mode                    : Variable
  10. Overall bit rate                         : 25.0 Mb/s
  11. Encoded date                             : UTC 2022-02-12 03:44:14
  12. Writing application                      : mkvmerge v62.0.0 ('Apollo') 64-bit
  13. Writing library                          : libebml v1.4.2 + libmatroska v1.6.4
  14. Video
  15. ID                                       : 1
  16. Format                                   : HEVC
  17. Format/Info                              : High Efficiency Video Coding
  18. Format profile                           : Main 10@L5.1@High
  19. HDR format                               : SMPTE ST 2086, HDR10 compatible
  20. Codec ID                                 : V_MPEGH/ISO/HEVC
  21. Duration                                 : 2 h 21 min
  22. Bit rate                                 : 19.6 Mb/s
  23. Width                                    : 3 840 pixels
  24. Height                                   : 2 160 pixels
  25. Display aspect ratio                     : 16:9
  26. Frame rate mode                          : Constant
  27. Frame rate                               : 23.976 (24000/1001/53354) FPS
  28. Color space                              : YUV
  29. Chroma subsampling                       : 4:2:0
  30. Bit depth                                : 10 bits
  31. Bits/(Pixel*Frame)                       : 0.099
  32. Stream size                              : 19.4 GiB (78%)
  33. Writing library                          : x265 3.3+3-g8f8e332f1+29:[Windows][#Erg`Djh#][@Yuuki] made by @Dongfangbubai
  34. Encoding settings                        : rc=crf / crf=18.0000 / qcomp=0.70 / qpstep=4 / stats-write=0 / stats-read=0 / vbv-maxrate=160000 / vbv-bufsize=160000 / vbv-init=0.9 / crf-max=0.0 / crf-min=0.0 / no-lossless / no-cu-lossless / aq-mode=3 / aq-strength=0.80 / cbqpoffs=-3 / crqpoffs=-3 / ipratio=1.40 / pbratio=1.30 / psy-rd=2.00 / psy-rdoq=3.00 / deblock=-1:-1 / ref=5 / limit-refs=0 / no-limit-modes / bframes=8 / b-adapt=2 / bframe-bias=0 / b-pyramid / b-intra / weightp / weightb / min-keyint=23 / max-keyint=240 / rc-lookahead=60 / gop-lookahead=0 / NTMzNTQ=uuDQuD2mJt9fsCf / scenecut=40 / hist-scenecut=0 / radl=0 / max-cu-size=32 / min-cu-size=8 / me=3 / subme=4 / merange=25 / rdoq-level=2 / rd=4 / rdpenalty=1 / dynamic-rd=0.00 / no-rd-refine / ----- / no-cutree / no-sao / no-rect / no-amp / no-open-gop / wpp / pmode / pme / no-psnr / no-ssim / nr-intra=0 / nr-inter=0 / no-constrained-intra / no-strong-intra-smoothing / max-tu-size=32 / tu-inter-depth=2 / tu-intra-depth=2 / limit-tu=0 / qg-size=32 / qpmax=69 / qpmin=0 / ----- / cpuid=533541176575 / frame-threads=6 / numa-pools=54,- / log-level=2 / input-csp=1 / input-res=3840x2160 / interlace=0 / level-idc=0 / high-tier=1 / uhd-bd=0 / no-allow-non-conformance / repeat-headers / no-aud / hrd / info / hash=0 / no-temporal-layers / lookahead-slices=0 / no-splice / no-intra-refresh / no-ssim-rd / signhide / no-tskip / max-merge=3 / temporal-mvp / no-frame-dup / no-hme / no-analyze-src-pics / no-sao-non-deblock / selective-sao=0 / no-early-skip / no-rskip / no-fast-intra / no-tskip-fast / no-splitrd-skip / zone-count=0 / no-strict-cbr / no-rc-grain / no-const-vbv / sar=0 / overscan=0 / videoformat=5 / range=0 / colorprim=9 / transfer=16 / colormatrix=9 / chromaloc=0 / display-window=0 / master-display=G(13250,34500)B(7500,3000)R(34000,16000)WP(15635,16450)L(10000000,50) / cll=0,0 / min-luma=0 / max-luma=1023 / log2-max-poc-lsb=8 / vui-timing-info / vui-hrd-info / slices=1 / no-opt-qp-pps / no-opt-ref-list-length-pps / no-multi-pass-opt-rps / scenecut-bias=0.05 / hist-threshold=0.01 / no-opt-cu-delta-qp / no-aq-motion / hdr10 / hdr10-opt / no-dhdr10-opt / no-idr-recovery-sei / analysis-reuse-level=0 / analysis-save-reuse-level=0 / analysis-load-reuse-level=0 / scale-factor=0 / refine-intra=0 / refine-inter=0 / refine-mv=1 / refine-ctu-distortion=0 / no-limit-sao / ctu-info=0 / no-lowpass-dct / refine-analysis-type=0 / copy-pic=1 / max-ausize-factor=1.0 / no-dynamic-refine / no-single-sei / no-hevc-aq / no-svt / no-field / qp-adaptation-range=1.00 / no-scenecut-aware-qpconformance-window-offsets / right=0 / bottom=0 / NTMzNTQ=
  35. Default                                  : Yes
  36. Forced                                   : No
  37. Color range                              : Limited
  38. Color primaries                          : BT.2020
  39. Transfer characteristics                 : PQ
  40. Matrix coefficients                      : BT.2020 non-constant
  41. Mastering display color primaries        : Display P3
  42. Mastering display luminance              : min: 0.0050 cd/m2, max: 1000 cd/m2
  43. Audio #1
  44. ID                                       : 2
  45. Format                                   : MLP FBA
  46. Format/Info                              : Meridian Lossless Packing FBA
  47. Commercial name                          : Dolby TrueHD
  48. Codec ID                                 : A_TRUEHD
  49. Duration                                 : 2 h 21 min
  50. Bit rate mode                            : Variable
  51. Bit rate                                 : 4 660 kb/s
  52. Maximum bit rate                         : 7 212 kb/s
  53. Channel(s)                               : 6 channels
  54. Channel layout                           : L R C LFE Ls Rs
  55. Sampling rate                            : 96.0 kHz
  56. Frame rate                               : 1 200.000 FPS (80 SPF)
  57. Compression mode                         : Lossless
  58. Stream size                              : 4.59 GiB (19%)
  59. Title                                    : 英语
  60. Language                                 : English
  61. Default                                  : Yes
  62. Forced                                   : No
  63. Audio #2
  64. ID                                       : 3
  65. Format                                   : AC-3
  66. Format/Info                              : Audio Coding 3
  67. Commercial name                          : Dolby Digital
  68. Codec ID                                 : A_AC3
  69. Duration                                 : 2 h 21 min
  70. Bit rate mode                            : Constant
  71. Bit rate                                 : 640 kb/s
  72. Channel(s)                               : 6 channels
  73. Channel layout                           : L R C LFE Ls Rs
  74. Sampling rate                            : 48.0 kHz
  75. Frame rate                               : 31.250 FPS (1536 SPF)
  76. Compression mode                         : Lossy
  77. Stream size                              : 646 MiB (3%)
  78. Title                                    : 央视国语
  79. Language                                 : Chinese
  80. Service kind                             : Complete Main
  81. Default                                  : No
  82. Forced                                   : No
  83. Text #1
  84. ID                                       : 4
  85. Format                                   : PGS
  86. Muxing mode                              : zlib
  87. Codec ID                                 : S_HDMV/PGS
  88. Codec ID/Info                            : Picture based subtitle format used on BDs/HD-DVDs
  89. Duration                                 : 2 h 12 min
  90. Bit rate                                 : 18.8 kb/s
  91. Count of elements                        : 2830
  92. Stream size                              : 17.8 MiB (0%)
  93. Title                                    : 官简
  94. Language                                 : Chinese
  95. Default                                  : Yes
  96. Forced                                   : No
  97. Text #2
  98. ID                                       : 5
  99. Format                                   : PGS
  100. Muxing mode                              : zlib
  101. Codec ID                                 : S_HDMV/PGS
  102. Codec ID/Info                            : Picture based subtitle format used on BDs/HD-DVDs
  103. Duration                                 : 2 h 12 min
  104. Bit rate                                 : 19.1 kb/s
  105. Count of elements                        : 2830
  106. Stream size                              : 18.2 MiB (0%)
  107. Title                                    : 官繁
  108. Language                                 : Chinese
  109. Default                                  : No
  110. Forced                                   : No
  111. Text #3
  112. ID                                       : 6
  113. Format                                   : PGS
  114. Muxing mode                              : zlib
  115. Codec ID                                 : S_HDMV/PGS
  116. Codec ID/Info                            : Picture based subtitle format used on BDs/HD-DVDs
  117. Duration                                 : 2 h 14 min
  118. Bit rate                                 : 29.9 kb/s
  119. Count of elements                        : 2602
  120. Stream size                              : 28.8 MiB (0%)
  121. Title                                    : 双语
  122. Language                                 : Chinese
  123. Default                                  : No
  124. Forced                                   : No
  125. Menu
  126. 00:00:00.000                             : :Chapter 01
  127. 00:12:02.250                             : :Chapter 02
  128. 00:26:17.458                             : :Chapter 03
  129. 00:34:49.000                             : :Chapter 04
  130. 00:45:58.083                             : :Chapter 05
  131. 00:57:51.250                             : :Chapter 06
  132. 01:09:34.000                             : :Chapter 07
  133. 01:23:04.750                             : :Chapter 08
  134. 01:32:52.875                             : :Chapter 09
  135. 01:46:50.958                             : :Chapter 10
  136. 01:55:54.041                             : :Chapter 11
  137. 02:10:49.708                             : :Chapter 12


TAGS 剧情 惊悚 爱情 音乐 /

磁力链:
  • magnet:?xt=urn:btih:93F372587B317AE2920FF1421C6D1949D349BAFA
上传的附件:
BT9527电影天堂 1、BT9527电影天堂提供的BT文件均来源于互联网抓取,只供网友学习交流、技术提升使用。
2、我们遵守BitTorrent点对点协议原则,任何版权问题请联系原资源发布商,我们不处理任何版权纠纷,谢谢!如有争议请联系邮箱:BT9527#hotmail.com(#换成@)
3、如果您发现某页面或地址有错误,请联系站长邮箱BT9527#hotmail.com(#换成@),我们会尽快处理。您的热心是对BT9527电影天堂最大的支持。
4、本站建议去正规影院观看电影以支持电影行业发展。
最新回复 (0)

你可以在 登录 or 注册 后,对此帖发表评论!

返回