法国贩毒网2[国英多音轨/中英字幕].The.French.Connection.II.1975.BluRay.1080p.x265.10bit.3Audio-MiniHD 6.30GB

版主小s 6月前 344

法国贩毒网2[国英多音轨/中英字幕].The.French.Connection.II.1975.BluRay.1080p.x265.10bit.3Audio-MiniHD 6.30GB

◎译  名 法国贩毒网2 / 密探霹雳火续集(港) / 霹雳神探续集(台) / 法国贩毒网续集 / 毒网惊魂2
◎片  名 French Connection II
◎年  代 1975
◎产  地 美国
◎类  别 剧情 / 动作 / 惊悚 / 犯罪
◎语  言 英语 / 法语
◎上映日期 1975-05-21
◎IMDb链接 https://www.imdb.com/title/tt0073018/
◎豆瓣评分 6.5/10 (2049人评价)
◎豆瓣链接 https://movie.douban.com/subject/1304579/
◎片  长 119 分钟
◎导  演 约翰·弗兰克海默 John Frankenheimer (id:1007071)
◎编  剧 亚历山大·雅各布斯 Alexander Jacobs (id:1043433)
       罗伯特·狄龙 Robert Dillon (id:1282445)
       彼得·哈米尔 Pete Hamill (id:1010089)
       Laurie Dillon Laurie Dillon (id:1282442)
◎演  员 吉恩·哈克曼 Gene Hackman (id:1004589)
       费尔南多·雷伊 Fernando Rey (id:1050140)
       贝尔纳·弗雷松 Bernard Fresson (id:1019315)
       菲利普·莱奥塔尔 Philippe Léotard (id:1050577)
       雅克·迪南 Jacques Dynam (id:1086128)
       埃德·劳特尔 Ed Lauter (id:1111563)
       保罗·梅塞 Paul Mercey (id:1115316)
       Charles Millot Charles Millot (id:1124510)
       凯瑟琳·内斯比特 Cathleen Nesbitt (id:1130251)
       让·皮埃尔·佐拉 Jean-Pierre Zola (id:1163680)
       拉乌尔·德尔福斯 Raoul Delfosse (id:1081977)
       Philippe Brizard Philippe Brizard (id:1077369)
       让-皮埃尔·卡斯塔尔迪 Jean-Pierre Castaldi (id:1074820)
       皮埃尔·科莱 Pierre Collet (id:1071154)
       洛朗·布兰切 Roland Blanche (id:1066232)
       哈尔·尼达姆 Hal Needham (id:1032337)
       帕特里克·伯利奇 Patrick Bouchitey (id:1025534)
       罗伯特·L·罗森 Robert L. Rosen (id:1014984)
       Don Ellis Don Ellis (id:1024230)
       克劳德·雷诺瓦 Claude Renoir (id:1037571)
       汤姆·罗尔夫 Tom Rolf (id:1014950)
       杰克斯·索尼耶 Jacques Saulnier (id:1053634)
       Pierre Tati Pierre Tati (id:1010235)
       贝尔纳·斯多拉 Bernard Stora (id:1043320)

◎简  介
  影片紧接前作结尾,法国贩毒首脑阿伦夏奈尔逍遥法外,多伊前往法国马塞追击。为了躲避法国警方的乾涉,多伊不慎落入阿伦的魔爪,并被强行注入海洛因……

  1. ##### MediaInfo ######
  2. General
  3. Unique ID                                : 195493660801219515537875909587232914179 (0x9312B5A3980A92EAB6F618439A047B03)
  4. Complete name                            : The.French.Connection.II.1975.BluRay.1080p.x265.10bit.3Audio-MiniHD.mkv
  5. Format                                   : Matroska
  6. Format version                           : Version 4
  7. File size                                : 6.30 GiB
  8. Duration                                 : 1 h 59 min
  9. Overall bit rate                         : 7 563 kb/s
  10. Encoded date                             : UTC 2017-09-07 09:40:42
  11. Writing application                      : mkvmerge v11.0.0 ('Alive') 64bit
  12. Writing library                          : libebml v1.3.4 + libmatroska v1.4.5
  13. Video
  14. ID                                       : 1
  15. Format                                   : HEVC
  16. Format/Info                              : High Efficiency Video Coding
  17. Codec ID                                 : V_MPEGH/ISO/HEVC
  18. Duration                                 : 1 h 59 min
  19. Bit rate                                 : 6 389 kb/s
  20. Width                                    : 1 920 pixels
  21. Height                                   : 1 040 pixels
  22. Display aspect ratio                     : 1.85:1
  23. Frame rate mode                          : Constant
  24. Frame rate                               : 23.976 (24000/1001/53354) FPS
  25. Bits/(Pixel*Frame)                       : 0.133
  26. Stream size                              : 5.32 GiB (84%)
  27. Default                                  : Yes
  28. Forced                                   : No
  29. Audio #1
  30. ID                                       : 2
  31. Format                                   : AC-3
  32. Format/Info                              : Audio Coding 3
  33. Commercial name                          : Dolby Digital
  34. Codec ID                                 : A_AC3
  35. Duration                                 : 1 h 59 min
  36. Bit rate mode                            : Constant
  37. Bit rate                                 : 640 kb/s
  38. Channel(s)                               : 6 channels
  39. Channel layout                           : L R C LFE Ls Rs
  40. Sampling rate                            : 48.0 kHz
  41. Frame rate                               : 31.250 FPS (1536 SPF)
  42. Compression mode                         : Lossy
  43. Stream size                              : 546 MiB (8%)
  44. Language                                 : English
  45. Service kind                             : Complete Main
  46. Default                                  : Yes
  47. Forced                                   : No
  48. Audio #2
  49. ID                                       : 3
  50. Format                                   : AC-3
  51. Format/Info                              : Audio Coding 3
  52. Commercial name                          : Dolby Digital
  53. Codec ID                                 : A_AC3
  54. Duration                                 : 1 h 59 min
  55. Bit rate mode                            : Constant
  56. Bit rate                                 : 192 kb/s
  57. Channel(s)                               : 2 channels
  58. Channel layout                           : L R
  59. Sampling rate                            : 48.0 kHz
  60. Frame rate                               : 31.250 FPS (1536 SPF)
  61. Compression mode                         : Lossy
  62. Stream size                              : 164 MiB (3%)
  63. Language                                 : Chinese
  64. Service kind                             : Complete Main
  65. Default                                  : No
  66. Forced                                   : No
  67. Audio #3
  68. ID                                       : 4
  69. Format                                   : AC-3
  70. Format/Info                              : Audio Coding 3
  71. Commercial name                          : Dolby Digital
  72. Codec ID                                 : A_AC3
  73. Duration                                 : 1 h 59 min
  74. Bit rate mode                            : Constant
  75. Bit rate                                 : 192 kb/s
  76. Channel(s)                               : 2 channels
  77. Channel layout                           : L R
  78. Sampling rate                            : 48.0 kHz
  79. Frame rate                               : 31.250 FPS (1536 SPF)
  80. Compression mode                         : Lossy
  81. Stream size                              : 164 MiB (3%)
  82. Language                                 : Chinese
  83. Service kind                             : Complete Main
  84. Default                                  : No
  85. Forced                                   : No
  86. Text #1
  87. ID                                       : 5
  88. Format                                   : PGS
  89. Muxing mode                              : zlib
  90. Codec ID                                 : S_HDMV/PGS
  91. Codec ID/Info                            : Picture based subtitle format used on BDs/HD-DVDs
  92. Language                                 : English
  93. Default                                  : Yes
  94. Forced                                   : No
  95. Text #2
  96. ID                                       : 6
  97. Format                                   : PGS
  98. Muxing mode                              : zlib
  99. Codec ID                                 : S_HDMV/PGS
  100. Codec ID/Info                            : Picture based subtitle format used on BDs/HD-DVDs
  101. Language                                 : Chinese
  102. Default                                  : No
  103. Forced                                   : No
  104. Text #3
  105. ID                                       : 7
  106. Format                                   : PGS
  107. Muxing mode                              : zlib
  108. Codec ID                                 : S_HDMV/PGS
  109. Codec ID/Info                            : Picture based subtitle format used on BDs/HD-DVDs
  110. Language                                 : Chinese
  111. Default                                  : No
  112. Forced                                   : No
  113. Text #4
  114. ID                                       : 8
  115. Format                                   : PGS
  116. Muxing mode                              : zlib
  117. Codec ID                                 : S_HDMV/PGS
  118. Codec ID/Info                            : Picture based subtitle format used on BDs/HD-DVDs
  119. Language                                 : Chinese
  120. Default                                  : No
  121. Forced                                   : No
  122. Text #5
  123. ID                                       : 9
  124. Format                                   : PGS
  125. Muxing mode                              : zlib
  126. Codec ID                                 : S_HDMV/PGS
  127. Codec ID/Info                            : Picture based subtitle format used on BDs/HD-DVDs
  128. Language                                 : Chinese
  129. Default                                  : No
  130. Forced                                   : No
  131. Menu
  132. 00:00:00.000                             : en:00:00:00.000
  133. 00:01:02.562                             : en:00:01:02.562
  134. 00:03:34.798                             : en:00:03:34.798
  135. 00:08:25.672                             : en:00:08:25.672
  136. 00:12:53.314                             : en:00:12:53.314
  137. 00:14:03.426                             : en:00:14:03.426
  138. 00:20:03.994                             : en:00:20:03.994
  139. 00:22:53.706                             : en:00:22:53.706
  140. 00:25:16.014                             : en:00:25:16.014
  141. 00:30:28.326                             : en:00:30:28.326
  142. 00:34:47.168                             : en:00:34:47.168
  143. 00:38:14.125                             : en:00:38:14.125
  144. 00:43:24.936                             : en:00:43:24.936
  145. 00:45:58.547                             : en:00:45:58.547
  146. 00:49:16.161                             : en:00:49:16.161
  147. 00:53:39.925                             : en:00:53:39.925
  148. 00:58:04.606                             : en:00:58:04.606
  149. 01:03:55.415                             : en:01:03:55.415
  150. 01:07:08.149                             : en:01:07:08.149
  151. 01:15:07.670                             : en:01:15:07.670
  152. 01:18:14.356                             : en:01:18:14.356
  153. 01:20:15.686                             : en:01:20:15.686
  154. 01:24:40.909                             : en:01:24:40.909
  155. 01:32:49.272                             : en:01:32:49.272
  156. 01:35:56.876                             : en:01:35:56.876
  157. 01:38:46.295                             : en:01:38:46.295
  158. 01:41:43.013                             : en:01:41:43.013
  159. 01:44:36.562                             : en:01:44:36.562
  160. 01:48:54.111                             : en:01:48:54.111
  161. 01:51:15.168                             : en:01:51:15.168
  162. 01:57:38.134                             : en:01:57:38.134
  163. 01:58:06.663                             : en:01:58:06.663
复制代码




TAGS 动作 剧情 惊悚 犯罪 /

磁力链:
  • magnet:?xt=urn:btih:2B28EF0617E6877A16A66FD1EDA7C46C3DC34449
上传的附件:
BT9527电影天堂 1、BT9527电影天堂提供的BT文件均来源于互联网抓取,只供网友学习交流、技术提升使用。
2、我们遵守BitTorrent点对点协议原则,任何版权问题请联系原资源发布商,我们不处理任何版权纠纷,谢谢!如有争议请联系邮箱:BT9527#hotmail.com(#换成@)
3、如果您发现某页面或地址有错误,请联系站长邮箱BT9527#hotmail.com(#换成@),我们会尽快处理。您的热心是对BT9527电影天堂最大的支持。
4、本站建议去正规影院观看电影以支持电影行业发展。
最新回复 (0)

你可以在 登录 or 注册 后,对此帖发表评论!

返回
发新帖