源代码[国英多音轨/中英字幕].Source.Code.2011.BluRay.1080p.x265.10bit.2Audio-MiniHD 5.92GB

版主小s 5月前 377



◎译  名 源代码 / 启动原始码(台) / 危机解密(港)
◎片  名 Source Code
◎年  代 2011
◎产  地 美国 / 加拿大
◎类  别 科幻 / 悬疑 / 惊悚
◎语  言 英语
◎上映日期 2011-08-30(中国大陆) / 2011-03-11(西南偏南电影节) / 2011-04-01(美国)
◎IMDb链接 https://www.imdb.com/title/tt0945513/
◎豆瓣评分 8.5/10 (768415人评价)
◎豆瓣链接 https://movie.douban.com/subject/3075287/
◎片  长 93分钟
◎导  演 邓肯·琼斯 Duncan Jones (id:1018030)
◎编  剧 本·雷普利 Ben Ripley (id:1315265)
◎演  员 杰克·吉伦哈尔 Jake Gyllenhaal (id:1048002)
       维拉·法米加 Vera Farmiga (id:1053584)
       米歇尔·莫纳汉 Michelle Monaghan (id:1000015)
       杰弗里·怀特 Jeffrey Wright (id:1036484)
       拉塞尔·皮特斯 Russell Peters (id:1027488)
       詹姆斯·A·伍兹 James A. Woods (id:1214609)
       迈克尔·阿登 Michael Arden (id:1027632)
       乔·柯布登  Joe Cobden (id:1078237)
       卡斯·安瓦尔 Cas Anvar (id:1323602)
       波拉琴希克森 Paula Jean Hixson (id:1092666)
       克雷格·汤姆斯 Craig Thomas (id:1299137)
       斯科特·巴库拉 Scott Bakula (id:1027835)
       贾森·芬尼 Jasson Finney (id:1456519)
       凯尔·盖特豪斯 Kyle Gatehouse (id:1374791)
       克里斯·贝肯 Chris Bacon (id:1251716)
       唐·伯吉斯 Don Burgess (id:1018519)
       蕾妮·艾珀尔 Renée April (id:1277332)
       奥利维尔·蒂博 Olivier Thibaut (id:1325881)

◎简  介
  在阿富汗执行任务的美国空军飞行员科特史蒂文斯上尉(杰克·吉伦哈尔 Jake Gyllenhaal 饰)突然惊醒,发现自己在一辆高速行驶的列车上,而他的身边坐着一个素不相识的女子克里斯蒂安(米歇尔·莫娜汉 Michelle Monaghan 饰)正在与自己讲话。科尔不知自己为什么会在这辆车上,而且他发现自己居然是以另一个人的身份存在,正当他迷惑不解的时候,列车上忽然发生爆炸……                                       
                                    科特又一次惊醒,发现自己身处一个密闭的太空仓里,有一位女军官古德温(维拉·法米加 Vera Farmiga 饰)正在通过视频和自己对话,并要求自己报告列车上发生的事情。一头雾水的科特还没搞明白是怎么回事时,他又一次被送上那辆列车。这次之后,科特终于明白自己在执行一件任务,负责调察芝加哥火车爆炸案找到恐怖份子并查出他的下一个目标。科特被一次又一次的送上那辆高速列车,每次只有八分钟...

◎获奖情况 (共2项)
  第2届豆瓣电影鑫像奖 (2012)
  鑫豆单元 最佳影片(外语)(提名)
  鑫豆单元 最佳导演(外语)(提名)
   └──邓肯·琼斯 (id:1018030)

  1. ##### MediaInfo ######
  2. General
  3. Unique ID                                : 243873318731011127097001473470481417307 (0xB7784AEF93098ABABCDFA1BED5E5C45B)
  4. Complete name                            : Source.Code.2011.BluRay.1080p.x265.10bit.2Audio-MiniHD.mkv
  5. Format                                   : Matroska
  6. Format version                           : Version 4
  7. File size                                : 5.92 GiB
  8. Duration                                 : 1 h 33 min
  9. Overall bit rate                         : 9 093 kb/s
  10. Encoded date                             : UTC 2017-08-04 05:31:47
  11. Writing application                      : mkvmerge v11.0.0 ('Alive') 64bit
  12. Writing library                          : libebml v1.3.4 + libmatroska v1.4.5
  13. Video
  14. ID                                       : 1
  15. Format                                   : HEVC
  16. Format/Info                              : High Efficiency Video Coding
  17. Codec ID                                 : V_MPEGH/ISO/HEVC
  18. Duration                                 : 1 h 33 min
  19. Bit rate                                 : 7 824 kb/s
  20. Width                                    : 1 920 pixels
  21. Height                                   : 1 080 pixels
  22. Display aspect ratio                     : 16:9
  23. Frame rate mode                          : Constant
  24. Frame rate                               : 23.976 (24000/1001/53354) FPS
  25. Bits/(Pixel*Frame)                       : 0.157
  26. Stream size                              : 5.10 GiB (86%)
  27. Default                                  : Yes
  28. Forced                                   : No
  29. Audio #1
  30. ID                                       : 2
  31. Format                                   : AC-3
  32. Format/Info                              : Audio Coding 3
  33. Commercial name                          : Dolby Digital
  34. Codec ID                                 : A_AC3
  35. Duration                                 : 1 h 33 min
  36. Bit rate mode                            : Constant
  37. Bit rate                                 : 640 kb/s
  38. Channel(s)                               : 6 channels
  39. Channel layout                           : L R C LFE Ls Rs
  40. Sampling rate                            : 48.0 kHz
  41. Frame rate                               : 31.250 FPS (1536 SPF)
  42. Compression mode                         : Lossy
  43. Stream size                              : 427 MiB (7%)
  44. Language                                 : English
  45. Service kind                             : Complete Main
  46. Default                                  : Yes
  47. Forced                                   : No
  48. Audio #2
  49. ID                                       : 3
  50. Format                                   : AC-3
  51. Format/Info                              : Audio Coding 3
  52. Commercial name                          : Dolby Digital
  53. Codec ID                                 : A_AC3
  54. Duration                                 : 1 h 33 min
  55. Bit rate mode                            : Constant
  56. Bit rate                                 : 448 kb/s
  57. Channel(s)                               : 6 channels
  58. Channel layout                           : L R C LFE Ls Rs
  59. Sampling rate                            : 48.0 kHz
  60. Frame rate                               : 31.250 FPS (1536 SPF)
  61. Compression mode                         : Lossy
  62. Stream size                              : 299 MiB (5%)
  63. Language                                 : Chinese
  64. Service kind                             : Complete Main
  65. Default                                  : No
  66. Forced                                   : No
  67. Text #1
  68. ID                                       : 4
  69. Format                                   : PGS
  70. Muxing mode                              : zlib
  71. Codec ID                                 : S_HDMV/PGS
  72. Codec ID/Info                            : Picture based subtitle format used on BDs/HD-DVDs
  73. Language                                 : English
  74. Default                                  : Yes
  75. Forced                                   : No
  76. Text #2
  77. ID                                       : 5
  78. Format                                   : PGS
  79. Muxing mode                              : zlib
  80. Codec ID                                 : S_HDMV/PGS
  81. Codec ID/Info                            : Picture based subtitle format used on BDs/HD-DVDs
  82. Language                                 : Chinese
  83. Default                                  : No
  84. Forced                                   : No
  85. Text #3
  86. ID                                       : 6
  87. Format                                   : PGS
  88. Muxing mode                              : zlib
  89. Codec ID                                 : S_HDMV/PGS
  90. Codec ID/Info                            : Picture based subtitle format used on BDs/HD-DVDs
  91. Language                                 : Chinese
  92. Default                                  : No
  93. Forced                                   : No
  94. Text #4
  95. ID                                       : 7
  96. Format                                   : PGS
  97. Muxing mode                              : zlib
  98. Codec ID                                 : S_HDMV/PGS
  99. Codec ID/Info                            : Picture based subtitle format used on BDs/HD-DVDs
  100. Language                                 : Chinese
  101. Default                                  : No
  102. Forced                                   : No
  103. Menu
  104. 00:00:00.000                             : en:Chapter 01
  105. 00:06:52.870                             : en:Chapter 02
  106. 00:11:03.662                             : en:Chapter 03
  107. 00:17:20.038                             : en:Chapter 04
  108. 00:21:06.556                             : en:Chapter 05
  109. 00:28:36.798                             : en:Chapter 06
  110. 00:31:50.366                             : en:Chapter 07
  111. 00:36:19.886                             : en:Chapter 08
  112. 00:41:35.743                             : en:Chapter 09
  113. 00:47:21.839                             : en:Chapter 10
  114. 00:52:30.188                             : en:Chapter 11
  115. 00:54:32.102                             : en:Chapter 12
  116. 00:58:01.227                             : en:Chapter 13
  117. 01:03:02.320                             : en:Chapter 14
  118. 01:09:39.550                             : en:Chapter 15
  119. 01:15:12.049                             : en:Chapter 16
  120. 01:21:49.654                             : en:Chapter 17
  121. 01:24:41.117                             : en:Chapter 18
复制代码




TAGS 惊悚 悬疑 科幻 /

磁力链:
  • magnet:?xt=urn:btih:DF6E856AC4C2F1990056B569C8991813AC2FEDCB
上传的附件:
BT9527电影天堂 1、BT9527电影天堂提供的BT文件均来源于互联网抓取,只供网友学习交流、技术提升使用。
2、我们遵守BitTorrent点对点协议原则,任何版权问题请联系原资源发布商,我们不处理任何版权纠纷,谢谢!如有争议请联系邮箱:BT9527#hotmail.com(#换成@)
3、如果您发现某页面或地址有错误,请联系站长邮箱BT9527#hotmail.com(#换成@),我们会尽快处理。您的热心是对BT9527电影天堂最大的支持。
4、本站建议去正规影院观看电影以支持电影行业发展。
最新回复 (0)

你可以在 登录 or 注册 后,对此帖发表评论!

返回
发新帖