潜行者[中文字幕].Stalker.1979.BluRay.1080p.x265.10bit-MiniHD 6.25GB

版主小s 6月前 389



◎译  名 潜行者 / Stalker
◎片  名 Сталкер
◎年  代 1979
◎产  地 苏联
◎类  别 剧情 / 科幻 / 悬疑
◎语  言 俄语
◎上映日期 1979-05(苏联) / 1980-05-13(戛纳电影节)
◎IMDb链接 https://www.imdb.com/title/tt0079944/
◎豆瓣评分 8.8/10 (25536人评价)
◎豆瓣链接 https://movie.douban.com/subject/1295656/
◎片  长 163 分钟
◎导  演 安德烈·塔可夫斯基 Andrei Tarkovsky (id:1027778)
◎编  剧 安德烈·塔可夫斯基 Andrei Tarkovsky (id:1027778)
       阿尔卡季·斯特鲁加茨基 Arkadi Strugatsky (id:1050842)
       鲍里斯·斯特鲁加茨基 Boris Strugatsky (id:1001281)
◎演  员 亚历山大·凯伊达诺夫斯基 Aleksandr Kaidanovsky (id:1103358)
       阿丽萨·弗雷因德利赫 Alisa Freyndlikh (id:1087818)
       安纳托利·索洛尼岑 Anatoliy Solonitsyn (id:1050626)
       尼古拉·格林科 Nikolai Grinko (id:1019480)
       纳塔利娅·阿布拉莫娃 Natalya Abramova (id:1342955)
       费米·约尔诺 Faime Jurno (id:1356163)
       E·科斯京 E. Kostin (id:1356164)
       雷默·伦迪 Raymo Rendi (id:1356165)
       爱德华·阿尔捷米耶夫 Eduard Artemyev (id:1037688)
       安德烈·塔可夫斯基 Andrei Tarkovsky (id:1027778)

◎简  介
  清晨,空荡幽暗的卧室。潜行者(亚历山大·凯伊达诺夫斯基 Aleksandr Kajdanovsky饰)悄然无息地起身准备与另外两人会合前往一片恐怖复杂的地带。可妻子(阿丽萨·弗雷因德利赫 Alisa Frejndlikh饰)却极力哀求他不要冒险进入该地。而这位训练有素、 经验丰富的潜行者,即将穿越的是一片有着千变万化陷阱和圈套的地区“The Zone”。这块二十年前因陨星坠落而荒芜的恐怖地区,传说有一个名叫“The Room”的囚室,它能满足人们潜意识里最深层的意愿和欲望。潜行者与为寻求灵感的作家(安纳托里·索洛尼岑 Anatoli Solonitsyn饰)和为探明真相的科学家(尼古莱·格陵柯 Nikolai Grinko饰),踏上了这片变幻莫测的死亡之地。                                       
                                    这部极具史诗片气质,探究人类灵魂本质的科幻电影《潜行者》,用诗意而极富隐喻的长镜头,挖掘着人...

◎获奖情况 (共1项)
  第33届戛纳电影节 (1980)
  天主教人道精神奖-特别提及
   └──安德烈·塔可夫斯基 (id:1027778)

  1. ##### MediaInfo ######
  2. General
  3. Unique ID                                : 171113055928391482859486647545613067486 (0x80BB2D031DEB59B59E268EE4C3E124DE)
  4. Complete name                            : Stalker.1979.BluRay.1080p.x265.10bit-MiniHD.mkv
  5. Format                                   : Matroska
  6. Format version                           : Version 4
  7. File size                                : 6.25 GiB
  8. Duration                                 : 2 h 41 min
  9. Overall bit rate                         : 5 530 kb/s
  10. Encoded date                             : UTC 2017-08-14 08:20:50
  11. Writing application                      : mkvmerge v11.0.0 ('Alive') 64bit
  12. Writing library                          : libebml v1.3.4 + libmatroska v1.4.5
  13. Video
  14. ID                                       : 1
  15. Format                                   : HEVC
  16. Format/Info                              : High Efficiency Video Coding
  17. Codec ID                                 : V_MPEGH/ISO/HEVC
  18. Duration                                 : 2 h 41 min
  19. Bit rate                                 : 5 188 kb/s
  20. Width                                    : 1 436 pixels
  21. Height                                   : 1 080 pixels
  22. Display aspect ratio                     : 4:3
  23. Frame rate mode                          : Constant
  24. Frame rate                               : 23.976 (24000/1001/53354) FPS
  25. Bits/(Pixel*Frame)                       : 0.140
  26. Stream size                              : 5.86 GiB (94%)
  27. Default                                  : Yes
  28. Forced                                   : No
  29. Audio
  30. ID                                       : 2
  31. Format                                   : AC-3
  32. Format/Info                              : Audio Coding 3
  33. Commercial name                          : Dolby Digital
  34. Codec ID                                 : A_AC3
  35. Duration                                 : 2 h 41 min
  36. Bit rate mode                            : Constant
  37. Bit rate                                 : 320 kb/s
  38. Channel(s)                               : 2 channels
  39. Channel layout                           : L R
  40. Sampling rate                            : 48.0 kHz
  41. Frame rate                               : 31.250 FPS (1536 SPF)
  42. Compression mode                         : Lossy
  43. Stream size                              : 370 MiB (6%)
  44. Language                                 : Russian
  45. Service kind                             : Complete Main
  46. Default                                  : Yes
  47. Forced                                   : No
  48. Text #1
  49. ID                                       : 3
  50. Format                                   : PGS
  51. Muxing mode                              : zlib
  52. Codec ID                                 : S_HDMV/PGS
  53. Codec ID/Info                            : Picture based subtitle format used on BDs/HD-DVDs
  54. Duration                                 : 2 h 38 min
  55. Bit rate                                 : 9 849 b/s
  56. Count of elements                        : 2112
  57. Stream size                              : 11.1 MiB (0%)
  58. Language                                 : Chinese
  59. Default                                  : Yes
  60. Forced                                   : No
  61. Text #2
  62. ID                                       : 4
  63. Format                                   : PGS
  64. Muxing mode                              : zlib
  65. Codec ID                                 : S_HDMV/PGS
  66. Codec ID/Info                            : Picture based subtitle format used on BDs/HD-DVDs
  67. Duration                                 : 2 h 38 min
  68. Bit rate                                 : 10.3 kb/s
  69. Count of elements                        : 2112
  70. Stream size                              : 11.6 MiB (0%)
  71. Language                                 : Chinese
  72. Default                                  : No
  73. Forced                                   : No
  74. Menu
  75. 00:00:00.000                             : en:Chapter 01
  76. 00:20:59.466                             : en:Chapter 02
  77. 00:39:24.653                             : en:Chapter 03
  78. 01:05:36.515                             : en:Chapter 04
  79. 01:23:45.228                             : en:Chapter 05
  80. 01:44:47.698                             : en:Chapter 06
  81. 02:02:13.284                             : en:Chapter 07
  82. 02:21:16.801                             : en:Chapter 08
  83. 02:41:43.402                             : en:Chapter 09
复制代码




TAGS 剧情 悬疑 科幻 /

磁力链:
  • magnet:?xt=urn:btih:31C5907328CB559FB6C1B5631BAFB5A265A0F4F6
上传的附件:
BT9527电影天堂 1、BT9527电影天堂提供的BT文件均来源于互联网抓取,只供网友学习交流、技术提升使用。
2、我们遵守BitTorrent点对点协议原则,任何版权问题请联系原资源发布商,我们不处理任何版权纠纷,谢谢!如有争议请联系邮箱:BT9527#hotmail.com(#换成@)
3、如果您发现某页面或地址有错误,请联系站长邮箱BT9527#hotmail.com(#换成@),我们会尽快处理。您的热心是对BT9527电影天堂最大的支持。
4、本站建议去正规影院观看电影以支持电影行业发展。
最新回复 (0)

你可以在 登录 or 注册 后,对此帖发表评论!

返回
发新帖