黄飞鸿[杜比视界版本][共4部合集][国语音轨/简繁英字幕].Once.Upon.a.Time.In.China.Collections.2160p.WEB-DL.DDP.5.1.DolbyVision.H.265-CTRLWEB 79.95GB

版主小s 5月前 529

◎译 名 黄飞鸿 / 黄飞鸿之壮志凌云 / 武状元黄飞鸿 / Once Upon a Time in China / Wong Fei-Hung

◎片 名 黃飛鴻

◎年 代 1991

◎产 地 中国香港

◎类 别 剧情 / 动作 / 武侠 / 古装

◎语 言 粤语 / 英语 / 汉语普通话

◎上映日期 1991-08-15

◎IMDb链接 https://www.imdb.com/title/tt0103285/

◎豆瓣评分 8.3/10 (160984人评价)

◎豆瓣链接 https://movie.douban.com/subject/1298443/

◎片 长 134分钟

◎导 演 徐克 Hark Tsui (id:1007152)

◎编 剧 徐克 Hark Tsui (id:1007152)

阮继志 Kai-Chi Yun (id:1322097)

邓碧燕 Elsa Tang (id:1321260)

梁耀明 Yiu-ming Leung (id:1377232)

◎演 员 李连杰 Jet Li (id:1025146)

元彪 Biao Yuen (id:1163752)

关之琳 Rosamund Kwan (id:1028064)

张学友 Jacky Cheung (id:1012563)

郑则仕 Kent Cheng (id:1019278)

邱建国 Jianguo Qiu (id:1324739)

任世官 Shi-Kwan Yen (id:1165667)

熊欣欣 Xinxin Xiong (id:1033090)

午马 Wu Ma (id:1054282)

秦贵宝 Kwai Po Chun (id:1417957)

黄子扬 Chi Yeung Wong (id:1025832)

布鲁斯·方丹 Bruce Fontaine (id:1458121)

江全 Chuen Chiang (id:1422721)

袁信义 Shun-Yee Yuen (id:1301576)

袁祥仁 Cheung-Yan Yuen (id:1301574)

麦克·里德 Mike Leeder (id:1382791)

冯雪瑞 Xuerui Feng (id:1329826)

任达华 Simon Yam (id:1031194)

许思敏 Si Man Hui (id:1414674)

石坚 Kien Shih (id:1140701)

刘洵 Shun Lau (id:1274304)

岑潜波 Chien-Po Tsen (id:1373123)

余袁稳 Yu Yuen Yin (id:1364266)

林富伟 Fu-wai Lam (id:1433957)

朱嘉懿 Julia Chu (id:1415701)

徐克 Hark Tsui (id:1007152)

黄霑 James Wong (id:1008091)

戴乐民 Romeo Díaz (id:1282921)

陈沛佳 Wilson Chan (id:1280449)

周伟权 Wai-kuen Chow (id:1439948)

黄岳泰 Arthur Wong (id:1301185)

黄仲标 Bill Wong (id:1301175)

林国华 Ardy Lam (id:1289296)

钟志文 David Chung (id:1280776)

陈东村 Tung-Chuen Chan (id:1280450)

麦子善 Marco Mak (id:1280638)

奚仲文 Chung-Man Hai (id:1275027)

余家安 Bruce Yu (id:1301555)

黄巧蓉 Hau-yung Wong (id:1439947)

黎继强 Kai Keung Lai (id:1289263)

霍永富 Marcus Fox (id:1445546)

邹文怀 Raymond Chow (id:1016883)

周少龙 Shao Lung Chou (id:1344862)

鄒林 Lam Chow (id:1330610)

罗礼贤 Bruce Law (id:1289542)

◎简 介

清朝末年,曾任黑旗水军教头兼民团总教练的广东佛山武师黄飞鸿(李连杰)常在宝芝林教人练武,期望借此自强救国,可是眼见政府苟且偷生洋人横行霸道,他渐渐领悟到单凭武术不足以使民众从苦海中脱离,开始努力找寻其它救国出路。梅县梁宽(元彪)在戏院结识黄飞鸿的恋人十三姨(关之琳)后与黄飞鸿出生种种误会,终投武夫严振东门下与黄飞鸿成为敌手。

严振东与洋人连手鼓吹美国是金山世界,将包括十三姨在内的大批中国妇女骗掳上洋船,梁宽此时幡然醒悟,明白黄飞鸿是友非敌,在他的帮助下,黄飞鸿开始与洋人及其爪牙展开浴血奋战。

◎获奖情况 (共9项)

第28届台北金马影展 (1991)

金马奖 最佳原创配乐

第11届香港电影金像奖 (1992)

最佳电影(提名)

最佳导演

└──徐克 (id:1007152)

最佳男配角(提名)

└──张学友 (id:1012563)

最佳摄影(提名)

最佳剪接

└──麦子善 (id:1280638)

最佳美术指导(提名)

└──奚仲文 (id:1275027)

最佳动作设计

最佳原创电影音乐

└──黄霑 (id:1008091)

  1. 合集文件列表:

  2. 1.Once.Upon.a.Time.In.China.2.1992.2160p.WEB-DL.AAC.2.0.DV.H.265-CTRLWEB.mp4 19.63GB

  3. 2.Once.Upon.a.Time.In.China.3.1993.2160p.WEB-DL.DD.5.1.DV.H.265-CTRLWEB.mp4 19.56GB

  4. 3.Once.Upon.a.Time.In.China.1991.2160p.WEB-DL.AAC.2.0.DV.H.265-CTRLWEB.mp4 23.32GB

  5. 4.Once.Upon.a.Time.In.China.and.America.1997.2160p.WEB-DL.DD.5.1.DV.H.265-CTRLWEB.mp4 17.44GB


复制代码

  1. ##### MediaInfo ######

  2. General

  3. Complete name : Once.Upon.a.Time.In.China.2.1992.2160p.WEB-DL.AAC.2.0.DV.H.265-CTRLWEB.mp4

  4. Format : MPEG-4

  5. Format profile : Base Media

  6. Codec ID : isom (isom)

  7. File size : 19.6 GiB

  8. Duration : 1 h 52 min

  9. Overall bit rate mode : Variable

  10. Overall bit rate : 24.9 Mb/s

  11. Encoded date : UTC 2022-06-02 11:25:26

  12. Tagged date : UTC 2022-06-02 11:25:26

  13. Writing application : GPAC-2.0-rev0-g418db414-master

  14. Video

  15. ID : 1

  16. Format : HEVC

  17. Format/Info : High Efficiency Video Coding

  18. Format profile : Main 10@L5@High

  19. HDR format : Dolby Vision, Version 1.0, dvhe.05.06, BL+RPU

  20. Codec ID : dvhe

  21. Codec ID/Info : High Efficiency Video Coding with Dolby Vision

  22. Duration : 1 h 52 min

  23. Bit rate : 24.6 Mb/s

  24. Width : 3 840 pixels

  25. Height : 1 608 pixels

  26. Original height : 1 604 pixels

  27. Display aspect ratio : 2.40:1

  28. Original display aspect ratio : 2.40:1

  29. Frame rate mode : Constant

  30. Frame rate : 24.000 FPS

  31. Color space : YUV

  32. Chroma subsampling : 4:2:0

  33. Bit depth : 10 bits

  34. Bits/(Pixel*Frame) : 0.166

  35. Stream size : 19.4 GiB (99%)

  36. Default : No

  37. Encoded date : UTC 2022-06-02 11:17:45

  38. Tagged date : UTC 2022-06-02 11:25:50

  39. mdhd_Duration : 6761750

  40. Codec configuration box : hvcC+dvcC

  41. Audio #1

  42. ID : 2

  43. Format : AAC LC

  44. Format/Info : Advanced Audio Codec Low Complexity

  45. Codec ID : mp4a-40-2

  46. Duration : 1 h 52 min

  47. Bit rate mode : Variable

  48. Bit rate : 144 kb/s

  49. Maximum bit rate : 245 kb/s

  50. Channel(s) : 2 channels

  51. Channel layout : L R

  52. Sampling rate : 48.0 kHz

  53. Frame rate : 46.875 FPS (1024 SPF)

  54. Compression mode : Lossy

  55. Stream size : 114 MiB (1%)

  56. Language : Chinese

  57. Default : Yes

  58. Alternate group : 1

  59. Encoded date : UTC 2022-06-02 11:25:04

  60. Tagged date : UTC 2022-06-02 11:25:50

  61. Audio #2

  62. ID : 3

  63. Format : AAC LC

  64. Format/Info : Advanced Audio Codec Low Complexity

  65. Codec ID : mp4a-40-2

  66. Duration : 1 h 52 min

  67. Bit rate mode : Variable

  68. Bit rate : 157 kb/s

  69. Maximum bit rate : 229 kb/s

  70. Channel(s) : 2 channels

  71. Channel layout : L R

  72. Sampling rate : 48.0 kHz

  73. Frame rate : 46.875 FPS (1024 SPF)

  74. Compression mode : Lossy

  75. Stream size : 126 MiB (1%)

  76. Language : Chinese

  77. Encoded date : UTC 2022-06-02 11:25:16

  78. Tagged date : UTC 2022-06-02 11:25:50

  79. Text #1

  80. ID : 4

  81. Format : Timed Text

  82. Codec ID : tx3g

  83. Duration : 1 h 52 min

  84. Bit rate mode : Variable

  85. Bit rate : 50 b/s

  86. Stream size : 41.1 KiB (0%)

  87. Title : United Kingdom

  88. Language : English

  89. Forced : No

  90. Encoded date : UTC 2022-06-02 11:25:50

  91. Tagged date : UTC 2022-06-02 11:25:50

  92. Text #2

  93. ID : 5

  94. Format : Timed Text

  95. Codec ID : tx3g

  96. Duration : 1 h 52 min

  97. Bit rate mode : Variable

  98. Bit rate : 48 b/s

  99. Stream size : 39.4 KiB (0%)

  100. Title : Simplified

  101. Language : Chinese

  102. Forced : No

  103. Encoded date : UTC 2022-06-02 11:25:50

  104. Tagged date : UTC 2022-06-02 11:25:50

  105. Text #3

  106. ID : 6

  107. Format : Timed Text

  108. Codec ID : tx3g

  109. Duration : 1 h 52 min

  110. Bit rate mode : Variable

  111. Bit rate : 48 b/s

  112. Stream size : 39.4 KiB (0%)

  113. Title : Traditional

  114. Language : Chinese

  115. Forced : No

  116. Encoded date : UTC 2022-06-02 11:25:50

  117. Tagged date : UTC 2022-06-02 11:25:50

  118. Text #4

  119. ID : 7

  120. Format : Timed Text

  121. Codec ID : tx3g

  122. Duration : 1 h 15 min

  123. Bit rate mode : Variable

  124. Bit rate : 4 b/s

  125. Stream size : 2.37 KiB (0%)

  126. Title : Traditional (Forced)

  127. Language : Chinese

  128. Default : Yes

  129. Forced : Yes

  130. Alternate group : 1

  131. Encoded date : UTC 2022-06-02 11:25:50

  132. Tagged date : UTC 2022-06-02 11:25:50


复制代码


TAGS 武侠 动作 剧情 古装 /

磁力链:
  • magnet:?xt=urn:btih:8B756F0FC3D7C848A2BD88B2F128BAECF6212D5C
上传的附件:
BT9527电影天堂 1、BT9527电影天堂提供的BT文件均来源于互联网抓取,只供网友学习交流、技术提升使用。
2、我们遵守BitTorrent点对点协议原则,任何版权问题请联系原资源发布商,我们不处理任何版权纠纷,谢谢!如有争议请联系邮箱:BT9527#hotmail.com(#换成@)
3、如果您发现某页面或地址有错误,请联系站长邮箱BT9527#hotmail.com(#换成@),我们会尽快处理。您的热心是对BT9527电影天堂最大的支持。
4、本站建议去正规影院观看电影以支持电影行业发展。
最新回复 (1)

你可以在 登录 or 注册 后,对此帖发表评论!

返回
发新帖