八彩林亚珍[国粤英多音轨/简繁英字幕].Plain.Jane.to.the.Rescue.1982.BluRay.1080p.2Audio.DTS-HD.MA.2.0.x265.10bit-ALT 7.47GB

版主小s 5月前 549

◎译 名 八彩林亚珍 / Plain Jane to the Rescue

◎片 名 八彩林亞珍

◎年 代 1982

◎产 地 中国香港

◎类 别 喜剧 / 动作

◎语 言 粤语

◎上映日期 1982-10-21(中国香港)

◎IMDb链接 https://www.imdb.com/title/tt0083605/

◎豆瓣评分 7.0/10 (1632人评价)

◎豆瓣链接 https://movie.douban.com/subject/1304208/

◎片 长 86分钟

◎导 演 吴宇森 John Woo (id:1027853)

◎编 剧 吴宇森 John Woo (id:1027853)

刘镇华 Chun-Wah Lau (id:1436336)

◎演 员 萧芳芳 Josephine Siao (id:1033099)

许冠英 Ricky Hui (id:1023727)

李琳琳 Lin Lin Li (id:1109052)

陈星 Sing Chen (id:1033057)

胡枫 Fung Woo (id:1313733)

罗文 Roman Tam (id:1005740)

胡大为 David Wu (id:1301332)

曹查理 Charlie Cho (id:1275320)

简而清 Yee Ching Gan (id:1385734)

李名炀 Ming-yang Li (id:1289688)

伍国健 Kwok-kin Ng (id:1418713)

刘克宣 Hark-Sun Lau (id:1340134)

冯敬文 Ging Man Fung (id:1341397)

吴宇森 John Woo (id:1027853)

吴康宁 Hong-Ning Ng (id:1447771)

邹文怀 Raymond Chow (id:1016883)

萧芳芳 Josephine Siao (id:1033099)

刘鸿泉 Hung Chuen Lau (id:1318709)

樊恭荣 Kung Wing Fan (id:1283421)

柯星沛 Sing-Pui O (id:1288789)

周少龙 Shao Lung Chou (id:1344862)

◎简 介

林亚珍(萧芳芳 饰)是一位个性正直开朗的女子,最近,她正在找工作,然而,大大咧咧不拘小节的性格不仅令林亚珍四处碰壁,还惹出了不少的麻烦和笑话,这让自信满满的林亚珍感到十分失落。

一次偶然中,林亚珍和儿时的玩伴曾非凡(许冠英 饰)重逢了,随后,曾非凡便向林亚珍展开了热烈的追求。然而,林亚珍的不解风情让曾非凡感到十分受挫,两人之间的感情能否顺利的进行下去呢?一个邪恶的财团打起了倒卖香港地皮的主意,林亚珍偶然之中得知了他们的阴谋,正义感满满的她发誓绝不能袖手旁观,屡屡破坏财团的诡计,却也因此而引来了杀身之祸。

  1. ##### MediaInfo ######

  2. General

  3. Unique ID : 140032767725870968773427858216443088793 (0x6959547E8A95CAC8A8339A5619468F99)

  4. Complete name : Plain.Jane.to.the.Rescue.1982.BluRay.1080p.2Audio.DTS-HD.MA.2.0.x265.10bit-ALT.mkv

  5. Format : Matroska

  6. Format version : Version 4

  7. File size : 7.47 GiB

  8. Duration : 1 h 30 min

  9. Overall bit rate mode : Variable

  10. Overall bit rate : 11.8 Mb/s

  11. Encoded date : UTC 2022-06-06 06:04:01

  12. Writing application : mkvmerge v49.0.0 ('Sick Of Losing Soulmates') 64-bit

  13. Writing library : libebml v1.4.0 + libmatroska v1.6.1

  14. Video

  15. ID : 1

  16. Format : HEVC

  17. Format/Info : High Efficiency Video Coding

  18. Format profile : Main 10@L5.1@High

  19. Codec ID : V_MPEGH/ISO/HEVC

  20. Duration : 1 h 30 min

  21. Bit rate : 10.1 Mb/s

  22. Width : 1 920 pixels

  23. Height : 816 pixels

  24. Display aspect ratio : 2.35:1

  25. Frame rate mode : Constant

  26. Frame rate : 24.000 FPS

  27. Color space : YUV

  28. Chroma subsampling : 4:2:0

  29. Bit depth : 10 bits

  30. Bits/(Pixel*Frame) : 0.269

  31. Stream size : 6.42 GiB (86%)

  32. Title : HEVC, x265Main10@L5.1@High, 24 fps @ 10112 kbps

  33. Writing library : x265 3.5+36-1f2c8da77:[Windows][GCC 11.2.0][64 bit] 10bit

  34. Encoding settings : cpuid=533541111039 / frame-threads=4 / numa-pools=16 / wpp / no-pmode / no-pme / no-psnr / no-ssim / log-level=2 / input-csp=1 / input-res=1920x816 / interlace=0 / total-frames=130824 / level-idc=51 / high-tier=1 / uhd-bd=0 / ref=5 / no-allow-non-conformance / no-repeat-headers / annexb / no-aud / no-eob / no-eos / no-hrd / info / hash=0 / no-temporal-layers / open-gop / min-keyint=24 / keyint=240 / gop-lookahead=0 / bframes=6 / b-adapt=2 / b-pyramid / bframe-bias=0 / rc-lookahead=40 / lookahead-slices=0 / NTMzNTQ=uuDQuD2mJt9fsCf / scenecut=40 / no-hist-scenecut / radl=0 / no-splice / no-intra-refresh / ctu=32 / min-cu-size=8 / no-rect / no-amp / max-tu-size=32 / tu-inter-depth=3 / tu-intra-depth=3 / limit-tu=4 / rdoq-level=2 / dynamic-rd=0.00 / no-ssim-rd / signhide / no-tskip / nr-intra=0 / nr-inter=0 / no-constrained-intra / no-strong-intra-smoothing / max-merge=4 / limit-refs=1 / limit-modes / me=3 / subme=4 / merange=25 / temporal-mvp / no-frame-dup / no-hme / weightp / weightb / no-analyze-src-pics / deblock=-3:-3 / no-sao / no-sao-non-deblock / rd=6 / selective-sao=0 / no-early-skip / rskip / no-fast-intra / no-tskip-fast / no-cu-lossless / b-intra / no-splitrd-skip / rdpenalty=0 / psy-rd=2.00 / psy-rdoq=1.00 / no-rd-refine / no-lossless / cbqpoffs=-2 / crqpoffs=-2 / rc=crf / crf=19.5 / qcomp=0.65 / qpstep=4 / stats-write=0 / stats-read=0 / vbv-maxrate=80000 / vbv-bufsize=80000 / vbv-init=0.9 / min-vbv-fullness=50.0 / max-vbv-fullness=80.0 / crf-max=0.0 / crf-min=0.0 / ipratio=1.40 / pbratio=1.30 / aq-mode=2 / aq-strength=0.85 / cutree / zone-count=0 / no-strict-cbr / qg-size=32 / no-rc-grain / qpmax=69 / qpmin=0 / no-const-vbv / sar=1 / overscan=0 / videoformat=5 / range=0 / colorprim=1 / transfer=1 / colormatrix=1 / chromaloc=0 / display-window=0 / cll=0,0 / min-luma=0 / max-luma=1023 / log2-max-poc-lsb=8 / vui-timing-info / vui-hrd-info / slices=1 / no-opt-qp-pps / no-opt-ref-list-length-pps / no-multi-pass-opt-rps / scenecut-bias=0.05 / hist-threshold=0.03 / no-opt-cu-delta-qp / no-aq-motion / no-hdr10 / no-hdr10-opt / no-dhdr10-opt / no-idr-recovery-sei / analysis-reuse-level=0 / analysis-save-reuse-level=0 / analysis-load-reuse-level=0 / scale-factor=0 / refine-intra=0 / refine-inter=0 / refine-mv=1 / refine-ctu-distortion=0 / no-limit-sao / ctu-info=0 / no-lowpass-dct / refine-analysis-type=0 / copy-pic=1 / max-ausize-factor=1.0 / no-dynamic-refine / no-single-sei / no-hevc-aq / no-svt / no-field / qp-adaptation-range=1.00 / scenecut-aware-qp=0conformance-window-offsets / right=0 / bottom=0 / NTMzNTQ= / decoder-max-rate=0 / no-vbv-live-multi-pass

  35. Language : English

  36. Default : Yes

  37. Forced : No

  38. Color range : Limited

  39. Color primaries : BT.709

  40. Transfer characteristics : BT.709

  41. Matrix coefficients : BT.709

  42. Audio #1

  43. ID : 2

  44. Format : DTS XLL

  45. Format/Info : Digital Theater Systems

  46. Commercial name : DTS-HD Master Audio

  47. Codec ID : A_DTS

  48. Duration : 1 h 30 min

  49. Bit rate mode : Variable

  50. Bit rate : 772 kb/s

  51. Channel(s) : 2 channels

  52. Channel layout : L R

  53. Sampling rate : 48.0 kHz

  54. Frame rate : 93.750 FPS (512 SPF)

  55. Bit depth : 16 bits

  56. Compression mode : Lossless

  57. Stream size : 502 MiB (7%)

  58. Title : Cantonese DTS-HD Master Audio 2.0 @ 773 kbps

  59. Language : Chinese

  60. Default : Yes

  61. Forced : No

  62. Audio #2

  63. ID : 3

  64. Format : DTS XLL

  65. Format/Info : Digital Theater Systems

  66. Commercial name : DTS-HD Master Audio

  67. Codec ID : A_DTS

  68. Duration : 1 h 30 min

  69. Bit rate mode : Variable

  70. Bit rate : 797 kb/s

  71. Channel(s) : 2 channels

  72. Channel layout : L R

  73. Sampling rate : 48.0 kHz

  74. Frame rate : 93.750 FPS (512 SPF)

  75. Bit depth : 16 bits

  76. Compression mode : Lossless

  77. Stream size : 518 MiB (7%)

  78. Title : Mandarin DTS-HD Master Audio 2.0 @ 798 kbps

  79. Language : Chinese

  80. Default : No

  81. Forced : No

  82. Text #1

  83. ID : 4

  84. Format : PGS

  85. Codec ID : S_HDMV/PGS

  86. Codec ID/Info : Picture based subtitle format used on BDs/HD-DVDs

  87. Duration : 1 h 27 min

  88. Bit rate : 30.8 kb/s

  89. Count of elements : 1788

  90. Stream size : 19.4 MiB (0%)

  91. Title : Cht/SUP 原盘繁体

  92. Language : Chinese

  93. Default : No

  94. Forced : No

  95. Text #2

  96. ID : 5

  97. Format : PGS

  98. Codec ID : S_HDMV/PGS

  99. Codec ID/Info : Picture based subtitle format used on BDs/HD-DVDs

  100. Duration : 1 h 27 min

  101. Bit rate : 28.6 kb/s

  102. Count of elements : 1788

  103. Stream size : 17.9 MiB (0%)

  104. Title : Chs/SUP 原盘简体

  105. Language : Chinese

  106. Default : Yes

  107. Forced : No

  108. Text #3

  109. ID : 6

  110. Format : PGS

  111. Codec ID : S_HDMV/PGS

  112. Codec ID/Info : Picture based subtitle format used on BDs/HD-DVDs

  113. Duration : 1 h 27 min

  114. Bit rate : 23.3 kb/s

  115. Count of elements : 1788

  116. Stream size : 14.6 MiB (0%)

  117. Title : Eng/SUP

  118. Language : English

  119. Default : No

  120. Forced : No

  121. Menu

  122. 00:00:00.000 : en:第 01 章

  123. 00:05:11.417 : en:第 02 章

  124. 00:12:13.833 : en:第 03 章

  125. 00:17:55.458 : en:第 04 章

  126. 00:25:27.500 : en:第 05 章

  127. 00:36:32.292 : en:第 06 章

  128. 00:42:58.375 : en:第 07 章

  129. 00:49:24.542 : en:第 08 章

  130. 00:56:18.042 : en:第 09 章

  131. 01:05:29.833 : en:第 10 章

  132. 01:15:35.458 : en:第 11 章

  133. 01:22:17.167 : en:第 12 章


复制代码


TAGS 动作 喜剧 /

磁力链:
  • magnet:?xt=urn:btih:7A4678111990D9794D77EC8EB8AA233D85B5B0E2
上传的附件:
BT9527电影天堂 1、BT9527电影天堂提供的BT文件均来源于互联网抓取,只供网友学习交流、技术提升使用。
2、我们遵守BitTorrent点对点协议原则,任何版权问题请联系原资源发布商,我们不处理任何版权纠纷,谢谢!如有争议请联系邮箱:BT9527#hotmail.com(#换成@)
3、如果您发现某页面或地址有错误,请联系站长邮箱BT9527#hotmail.com(#换成@),我们会尽快处理。您的热心是对BT9527电影天堂最大的支持。
4、本站建议去正规影院观看电影以支持电影行业发展。
最新回复 (0)

你可以在 登录 or 注册 后,对此帖发表评论!

返回
发新帖