我的青春有个你[杜比视界版本][国语配音/中文字幕].To.Be.With.You.2021.2160p.WEB-DL.H265.DV.DDP5.1.Atmos-HDBWEB 5.32GB

版主小s 5月前 398



◎译  名 我的青春有个你 / 草样年华 / To Be With You
◎年  代 2021
◎产  地 中国大陆
◎类  别 剧情 / 爱情
◎语  言 汉语普通话
◎上映日期 2021-09-19(中国大陆)
◎IMDb链接 https://www.imdb.com/title/tt16359836/
◎豆瓣评分 4.2/10 (10176人评价)
◎豆瓣链接 https://movie.douban.com/subject/25920326/
◎片  长 96分钟
◎导  演 林子平 Tzu-Ping Lin (id:1357820)
       孙睿 Rui Sun (id:1327152)
       高炳权 Pin-Chuan Kao (id:1320648)
◎编  剧 孙睿 Rui Sun (id:1327152)
◎演  员 王可如 Keru Wang (id:1366845)
       刘冬沁 Dongqin Liu (id:1354373)
       李欢 Huan Li (id:1349341)
       黄米依 Miyi Huang (id:1389715)
       沈腾 Teng Shen (id:1325700)
       姚晨 Chen Yao (id:1029395)
       王真儿 Zhen'er Wang (id:1346550)
       胡宇威 George Hu (id:1313601)
       谢治勋 Zhixun Xie (id:1385190)
       包亚铭 Yaming Bao (id:1420762)
       安戈 Ge An (id:1415483)
       高煜霏 Yufei Gao (id:1375586)
       仁龙 Long Ren (id:1363833)
       李亚平 Yaping Li (id:1414635)
       郑志昊 Zhihao Zheng (id:1397531)
       张博 Bo Zhang (id:1450637)
       李赫 Nancy (id:1449155)
       高航  (id:1458889)
       江敏忠  (id:1458885)
       李栋全 Wenders Li (id:1275162)
       蔡鸿仪  (id:1458888)
       柏灵童  (id:1458886)
       张丁木  (id:1458887)
       郝钢 Gang Hao (id:1388362)

◎简  介
  大学军训里一场意外,让乖乖女周舟(王可如 饰)和学渣混混邱飞(刘冬沁 饰),彼此相遇。从英雄救美到勇敢表白,张扬的邱飞就这样走进周舟的心。当两人沉醉热恋时,已收敛张扬个性的邱飞,却卷入一场斗殴事件,他似乎在隐藏什么秘密?被迫退学的邱飞,在周舟痛苦的挽留下转身离去,只有他知道自己所做一切都是为了保护这个心爱的女孩。十多年后的周舟终于知道了真相,面对青春最痛的错过,她还能找回这段爱情吗……

  1. ##### MediaInfo ######
  2. General
  3. Complete name                            : 我的青春有个你.To.Be.With.You.2021.2160p.WEB-DL.H265.DV.DDP5.1.Atmos-HDBWEB.mp4
  4. Format                                   : MPEG-4
  5. Format profile                           : Base Media / Version 2
  6. Codec ID                                 : mp42 (mp42/iso6/isom/msdh/dby1)
  7. File size                                : 5.32 GiB
  8. Duration                                 : 1 h 36 min
  9. Overall bit rate                         : 7 935 kb/s
  10. Encoded date                             : UTC 2022-06-06 02:24:08
  11. Tagged date                              : UTC 2022-06-06 02:24:08
  12. Video
  13. ID                                       : 1
  14. Format                                   : HEVC
  15. Format/Info                              : High Efficiency Video Coding
  16. Format profile                           : Main 10@L5@Main
  17. HDR format                               : Dolby Vision, Version 1.0, dvhe.05.06, BL+RPU
  18. Codec ID                                 : dvhe
  19. Codec ID/Info                            : High Efficiency Video Coding with Dolby Vision
  20. Duration                                 : 1 h 36 min
  21. Bit rate                                 : 7 228 kb/s
  22. Width                                    : 3 840 pixels
  23. Height                                   : 1 600 pixels
  24. Display aspect ratio                     : 2.40:1
  25. Frame rate mode                          : Constant
  26. Frame rate                               : 24.000 FPS
  27. Color space                              : YUV
  28. Chroma subsampling                       : 4:2:0
  29. Bit depth                                : 10 bits
  30. Bits/(Pixel*Frame)                       : 0.049
  31. Stream size                              : 4.85 GiB (91%)
  32. Default                                  : Yes
  33. Alternate group                          : 1
  34. Encoded date                             : UTC 2022-06-06 02:24:08
  35. Tagged date                              : UTC 2022-06-06 02:24:08
  36. Color range                              : Full
  37. Codec configuration box                  : hvcC+dvcC
  38. Audio #1
  39. ID                                       : 2
  40. Format                                   : E-AC-3 JOC
  41. Format/Info                              : Enhanced AC-3 with Joint Object Coding
  42. Commercial name                          : Dolby Digital Plus with Dolby Atmos
  43. Codec ID                                 : ac-3
  44. Duration                                 : 1 h 36 min
  45. Bit rate mode                            : Constant
  46. Bit rate                                 : 448 kb/s
  47. Channel(s)                               : 6 channels
  48. Channel layout                           : L R C LFE Ls Rs
  49. Sampling rate                            : 48.0 kHz
  50. Frame rate                               : 31.250 FPS (1536 SPF)
  51. Compression mode                         : Lossy
  52. Stream size                              : 308 MiB (6%)
  53. Language                                 : Chinese
  54. Service kind                             : Complete Main
  55. Default                                  : Yes
  56. Alternate group                          : 2
  57. Encoded date                             : UTC 2022-06-06 02:24:08
  58. Tagged date                              : UTC 2022-06-06 02:24:08
  59. Complexity index                         : Not present / 16
  60. Number of dynamic objects                : 15
  61. Bed channel count                        : 1 channel
  62. Bed channel configuration                : LFE
  63. Audio #2
  64. ID                                       : 3
  65. Format                                   : E-AC-3
  66. Format/Info                              : Enhanced AC-3
  67. Commercial name                          : Dolby Digital Plus
  68. Codec ID                                 : ac-3
  69. Duration                                 : 1 h 36 min
  70. Bit rate mode                            : Constant
  71. Bit rate                                 : 256 kb/s
  72. Channel(s)                               : 2 channels
  73. Channel layout                           : L R
  74. Sampling rate                            : 48.0 kHz
  75. Frame rate                               : 31.250 FPS (1536 SPF)
  76. Compression mode                         : Lossy
  77. Stream size                              : 176 MiB (3%)
  78. Language                                 : Chinese
  79. Service kind                             : Complete Main
  80. Default                                  : No
  81. Alternate group                          : 2
  82. Encoded date                             : UTC 2022-06-06 02:24:08
  83. Tagged date                              : UTC 2022-06-06 02:24:08
复制代码




TAGS 剧情 爱情 /

磁力链:
  • magnet:?xt=urn:btih:5EADADBD50AC6E9A63B8185EF9F0754C24933291
上传的附件:
BT9527电影天堂 1、BT9527电影天堂提供的BT文件均来源于互联网抓取,只供网友学习交流、技术提升使用。
2、我们遵守BitTorrent点对点协议原则,任何版权问题请联系原资源发布商,我们不处理任何版权纠纷,谢谢!如有争议请联系邮箱:BT9527#hotmail.com(#换成@)
3、如果您发现某页面或地址有错误,请联系站长邮箱BT9527#hotmail.com(#换成@),我们会尽快处理。您的热心是对BT9527电影天堂最大的支持。
4、本站建议去正规影院观看电影以支持电影行业发展。
最新回复 (0)

你可以在 登录 or 注册 后,对此帖发表评论!

返回
发新帖