幻影特攻[国语配音/中文字幕].Hot.War.1998.Bluray.1080p.LPCM2.0.x265.10bit-CTRLHD 6.69GB

版主小s 5月前 457

幻影特攻[国语配音/中文字幕].Hot.War.1998.Bluray.1080p.LPCM2.0.x265.10bit-CTRLHD 6.69GB

◎译  名 幻影特攻 / Hot War
◎年  代 1998
◎产  地 中国香港
◎类  别 惊悚
◎语  言 粤语
◎上映日期 1998-12-24(中国香港)
◎IMDb链接 https://www.imdb.com/title/tt0181582/
◎豆瓣评分 5.9/10 (5703人评价)
◎豆瓣链接 https://movie.douban.com/subject/1296698/
◎片  长 93分钟
◎导  演 马楚成 Jingle Ma (id:1280599)
◎编  剧 潘源良 Yuen-Leung Poon (id:1294715)
       罗志良 Chi-Leung Law (id:1274275)
       周少文 Siu Man Chow (id:1324567)
◎演  员 郑伊健 Ekin Cheng (id:1031793)
       陈小春 Jordan Chan (id:1075760)
       陈慧琳 Kelly Chen (id:1050335)
       尹子维 Terence Yin (id:1045571)
       杨峥 Vanessa Yeung (id:1015637)
       樋口明日嘉 Asuka Higuchi (id:1051169)
       谭嘉荃 Amy Tam Ka-Chuen (id:1339059)
       邹文怀 Raymond Chow (id:1016883)
       成龙 Jackie Chan (id:1054531)
       金培达 Peter Kam (id:1288082)
       陈国雄 Kwok Hung Chan (id:1309658)
       邝志良 Chi-Leung Kwong (id:1289164)
       吴里璐 Dora Ng (id:1289270)
       董玮 Wai Tung (id:1299617)
       曾景祥 Kinson Tsang (id:1299575)
       周少文 Siu Man Chow (id:1324567)

◎简  介
  三个一起在孤儿院长大的好友德高(郑伊健 饰)、松鼠(陈小春 饰)、小蓝(陈慧琳 饰)成为了科学家,在美国中央情报局研究“人类潜意识”。他们得到消息称不法分子狂龙打算趁机在世界杯期间恶意把暴力意识传到东南亚,进一步引发金融风暴。                                    
                                德高与松鼠、小蓝这几名出色的科学家成为了狂龙的目标。在松鼠结婚当天,他们杀死了松鼠的妻子,挟持了小蓝离开。德高与松鼠决心要报复与拯救小蓝,所以自愿接受了科学院里的潜意识训练,想通过训练成为杰出的打手。                                    
                                可是在他们成功救出小蓝的时候,松鼠的意识发生了变异,错手杀死了德高的爱人小蓝。从此松鼠与德高各走各路,但对爱人逝世无法释怀的德高决定为女友报仇,一定要找到松鼠。

◎获奖情况 (共4项)
  第36届台北金马影展 (1999)
  金马奖 最佳视觉效果(提名)

  第18届香港电影金像奖 (1999)
  最佳剪接(提名)
   └──邝志良 (id:1289164)
  最佳动作设计(提名)
   └──董玮 (id:1299617)
  最佳音响效果(提名)

  1. ##### MediaInfo ######
  2. General
  3. Unique ID                                : 24441584878469520737009560233682700729 (0x1263472C5B333C949399A8741D8489B9)
  4. Complete name                            : Hot.War.1998.Bluray.1080p.LPCM2.0.x265.10bit-CTRLHD.mkv
  5. Format                                   : Matroska
  6. Format version                           : Version 4
  7. File size                                : 6.69 GiB
  8. Duration                                 : 1 h 33 min
  9. Overall bit rate                         : 10.3 Mb/s
  10. Encoded date                             : UTC 2022-06-05 12:03:40
  11. Writing application                      : mkvmerge v62.0.0 ('Apollo') 64-bit
  12. Writing library                          : libebml v1.4.2 + libmatroska v1.6.4
  13. Video
  14. ID                                       : 1
  15. Format                                   : HEVC
  16. Format/Info                              : High Efficiency Video Coding
  17. Format profile                           : Main 10@L5@Main
  18. Codec ID                                 : V_MPEGH/ISO/HEVC
  19. Duration                                 : 1 h 33 min
  20. Bit rate                                 : 5 634 kb/s
  21. Width                                    : 1 920 pixels
  22. Height                                   : 1 080 pixels
  23. Display aspect ratio                     : 16:9
  24. Frame rate mode                          : Constant
  25. Frame rate                               : 24.000 FPS
  26. Color space                              : YUV
  27. Chroma subsampling                       : 4:2:0
  28. Bit depth                                : 10 bits
  29. Bits/(Pixel*Frame)                       : 0.113
  30. Stream size                              : 3.67 GiB (55%)
  31. Writing library                          : x265 3.5+10-82786fccc:[Windows][MSVC 1929][64 bit] 10bit
  32. Encoding settings                        : cpuid=533541111039 / frame-threads=5 / numa-pools=36,36 / wpp / no-pmode / no-pme / no-psnr / no-ssim / log-level=2 / input-csp=1 / input-res=1920x1080 / interlace=0 / total-frames=0 / level-idc=0 / high-tier=1 / uhd-bd=0 / ref=6 / no-allow-non-conformance / repeat-headers / annexb / no-aud / no-eob / no-eos / no-hrd / info / hash=0 / no-temporal-layers / no-open-gop / min-keyint=24 / keyint=250 / gop-lookahead=0 / bframes=8 / b-adapt=2 / b-pyramid / bframe-bias=0 / rc-lookahead=24 / lookahead-slices=6 / NTMzNTQ=uuDQuD2mJt9fsCf / scenecut=40 / hist-scenecut=0 / radl=0 / no-splice / no-intra-refresh / ctu=64 / min-cu-size=8 / no-rect / no-amp / max-tu-size=32 / tu-inter-depth=1 / tu-intra-depth=1 / limit-tu=0 / rdoq-level=0 / dynamic-rd=0.00 / no-ssim-rd / signhide / no-tskip / nr-intra=0 / nr-inter=0 / no-constrained-intra / no-strong-intra-smoothing / max-merge=3 / limit-refs=1 / no-limit-modes / me=2 / subme=7 / merange=48 / temporal-mvp / no-frame-dup / no-hme / weightp / weightb / no-analyze-src-pics / deblock=0:0 / sao / no-sao-non-deblock / rd=4 / selective-sao=4 / early-skip / rskip / no-fast-intra / no-tskip-fast / no-cu-lossless / b-intra / no-splitrd-skip / rdpenalty=0 / psy-rd=2.00 / psy-rdoq=0.00 / no-rd-refine / no-lossless / cbqpoffs=0 / crqpoffs=0 / rc=crf / crf=15.5 / qcomp=0.60 / qpstep=4 / stats-write=0 / stats-read=0 / ipratio=1.40 / pbratio=1.30 / aq-mode=3 / aq-strength=1.00 / cutree / zone-count=0 / no-strict-cbr / qg-size=32 / no-rc-grain / qpmax=69 / qpmin=0 / no-const-vbv / sar=0 / overscan=0 / videoformat=5 / range=0 / colorprim=2 / transfer=2 / colormatrix=2 / chromaloc=0 / display-window=0 / cll=0,0 / min-luma=0 / max-luma=1023 / log2-max-poc-lsb=8 / vui-timing-info / vui-hrd-info / slices=1 / no-opt-qp-pps / no-opt-ref-list-length-pps / no-multi-pass-opt-rps / scenecut-bias=0.05 / hist-threshold=0.03 / no-opt-cu-delta-qp / aq-motion / no-hdr10 / no-hdr10-opt / no-dhdr10-opt / no-idr-recovery-sei / analysis-reuse-level=0 / analysis-save-reuse-level=0 / analysis-load-reuse-level=0 / scale-factor=0 / refine-intra=0 / refine-inter=0 / refine-mv=1 / refine-ctu-distortion=0 / no-limit-sao / ctu-info=0 / no-lowpass-dct / refine-analysis-type=0 / copy-pic=1 / max-ausize-factor=1.0 / no-dynamic-refine / no-single-sei / hevc-aq / no-svt / no-field / qp-adaptation-range=1.00 / scenecut-aware-qp=0conformance-window-offsets / right=0 / bottom=0 / NTMzNTQ= / decoder-max-rate=0 / no-vbv-live-multi-pass
  33. Default                                  : Yes
  34. Forced                                   : No
  35. Audio #1
  36. ID                                       : 2
  37. Format                                   : PCM
  38. Format settings                          : Little / Signed
  39. Codec ID                                 : A_PCM/INT/LIT
  40. Duration                                 : 1 h 33 min
  41. Bit rate mode                            : Constant
  42. Bit rate                                 : 2 304 kb/s
  43. Channel(s)                               : 2 channels
  44. Sampling rate                            : 48.0 kHz
  45. Frame rate                               : 25.000 FPS (1920 SPF)
  46. Bit depth                                : 24 bits
  47. Stream size                              : 1.50 GiB (22%)
  48. Language                                 : Chinese
  49. Default                                  : Yes
  50. Forced                                   : No
  51. Audio #2
  52. ID                                       : 3
  53. Format                                   : PCM
  54. Format settings                          : Little / Signed
  55. Codec ID                                 : A_PCM/INT/LIT
  56. Duration                                 : 1 h 33 min
  57. Bit rate mode                            : Constant
  58. Bit rate                                 : 2 304 kb/s
  59. Channel(s)                               : 2 channels
  60. Sampling rate                            : 48.0 kHz
  61. Frame rate                               : 25.000 FPS (1920 SPF)
  62. Bit depth                                : 24 bits
  63. Stream size                              : 1.50 GiB (22%)
  64. Language                                 : Chinese
  65. Default                                  : Yes
  66. Forced                                   : No
  67. Text #1
  68. ID                                       : 4
  69. Format                                   : PGS
  70. Muxing mode                              : zlib
  71. Codec ID                                 : S_HDMV/PGS
  72. Codec ID/Info                            : Picture based subtitle format used on BDs/HD-DVDs
  73. Duration                                 : 1 h 30 min
  74. Bit rate                                 : 22.9 kb/s
  75. Count of elements                        : 1045
  76. Stream size                              : 14.8 MiB (0%)
  77. Language                                 : Chinese
  78. Default                                  : Yes
  79. Forced                                   : No
  80. Text #2
  81. ID                                       : 5
  82. Format                                   : PGS
  83. Muxing mode                              : zlib
  84. Codec ID                                 : S_HDMV/PGS
  85. Codec ID/Info                            : Picture based subtitle format used on BDs/HD-DVDs
  86. Duration                                 : 1 h 30 min
  87. Bit rate                                 : 23.0 kb/s
  88. Count of elements                        : 1021
  89. Stream size                              : 14.8 MiB (0%)
  90. Language                                 : Chinese
  91. Default                                  : Yes
  92. Forced                                   : No
  93. Text #3
  94. ID                                       : 6
  95. Format                                   : PGS
  96. Muxing mode                              : zlib
  97. Codec ID                                 : S_HDMV/PGS
  98. Codec ID/Info                            : Picture based subtitle format used on BDs/HD-DVDs
  99. Duration                                 : 1 h 30 min
  100. Bit rate                                 : 20.0 kb/s
  101. Count of elements                        : 1025
  102. Stream size                              : 12.9 MiB (0%)
  103. Language                                 : English
  104. Default                                  : Yes
  105. Forced                                   : No
  106. Menu
  107. 00:00:00.000                             : en:第 01 章
  108. 00:07:42.583                             : en:第 02 章
  109. 00:16:38.458                             : en:第 03 章
  110. 00:22:40.917                             : en:第 04 章
  111. 00:32:14.500                             : en:第 05 章
  112. 00:37:09.625                             : en:第 06 章
  113. 00:46:33.917                             : en:第 07 章
  114. 00:52:47.625                             : en:第 08 章
  115. 01:03:07.083                             : en:第 09 章
  116. 01:10:17.583                             : en:第 10 章
  117. 01:17:36.875                             : en:第 11 章
  118. 01:24:21.333                             : en:第 12 章
复制代码




TAGS 惊悚

磁力链:
  • magnet:?xt=urn:btih:1BE3DBB4C38E9418A02B9FF32356215BB91BA85A
上传的附件:
BT9527电影天堂 1、BT9527电影天堂提供的BT文件均来源于互联网抓取,只供网友学习交流、技术提升使用。
2、我们遵守BitTorrent点对点协议原则,任何版权问题请联系原资源发布商,我们不处理任何版权纠纷,谢谢!如有争议请联系邮箱:BT9527#hotmail.com(#换成@)
3、如果您发现某页面或地址有错误,请联系站长邮箱BT9527#hotmail.com(#换成@),我们会尽快处理。您的热心是对BT9527电影天堂最大的支持。
4、本站建议去正规影院观看电影以支持电影行业发展。
最新回复 (0)

你可以在 登录 or 注册 后,对此帖发表评论!

返回
发新帖